Bahubali 2 на русском торрент


Скачать торрент Бахубали: Завершение / Bahubali 2: The Conclusion (2017) BDRip-AVC от ExKinoRay

Информация о фильмеНазвание: Бахубали: ЗавершениеОригинальное название: Bahubali 2: The ConclusionГод выпуска: 2017Жанр: Фэнтези, боевик, драма, приключенияВыпущено: Индия, Arka Mediaworks, Beyond Studio Entertainments VFXРежиссер: С.С. РаджамулиВ ролях: Прабхас, Рана Даггубати, Анушка Шетти, Таманна Бхатия, Сатхьярадж, Рамья Кришна, Нассер, Суббараджу

Описание: Старый Каттаппа рассказывает Шиве, почему убил его отца Амарендру. После того, как тот был усыновлён королевой Шивагами, старший сводный брат Бхаллаладева всегда ему завидовал. Зависть достигла апогея после битвы с дикими племенами, когда Шивагами нарекла младшего сына наследником королевства. Бхаллаладева и его хитрый отец начинают плести грязные интриги, чтобы сжить Амарендру со свету.

Продолжительность: 02:48:04Перевод: Любительский (многоголосый, закадровый)Субтитры: Русские (2 х на песни (Enigma (с хинди), Honey&Haseena (с тамили)), английские (полные)

Файл Формат: MKVКачество: BDRip-AVC Видео: AVC, 1024х428 (2.40:1), 2520 kbps, 24,000 fps, 0,240 bppАудио 1: AC-3, 48.0 KHz, 2.0 ch, 192 Kbps, CBR (Russian)Аудио 2: AC-3, 48.0 KHz, 5.1 ch, 448 Kbps, CBR (Hindi)

Озвучка: Денис Строев, Давид Петросян, Константин Федосеев, Левша Фёрст и Маргарита Сахно Перевод и редакция: ❖ Honey&Haseena ❖ Звукорежиссёр: Михаил Шорыгин

Язык оригинальной дорожки Тамили Фильм переведён и озвучен по специальному заказу Селены Шелестовой

Навигация по главам: Есть

MI

General Unique ID : 175022085583634975368713564175998790791 (0x83AC070DDFF39CF78028AA7A37FA2C87) Complete name : D:Bahubali.2.The Conclusion.2017.MVO.BDRip.AVC.ExKinoRay.mkv Format : Matroska Format version : Version 2 File size : 3.68 GiB Duration : 2 h 46 min Overall bit rate : 3 161 kb/s Movie name : Bahubali 2 (2017) from ExKinoRay Encoded date : UTC 2017-09-06 15:01:17 Writing application : mkvmerge v5.6.0 ('Kenya Kane') built on May 27 2012 16:44:04 Writing library : libebml v1.2.3 + libmatroska v1.3.0

Video ID : 1 Format : AVC Format/Info : Advanced Video Codec Format profile : [email protected] Format settings, CABAC : Yes Format settings, ReFrames : 11 frames Codec ID : V_MPEG4/ISO/AVC Duration : 2 h 46 min Bit rate : 2 520 kb/s Width : 1 024 pixels Height : 428 pixels Display aspect ratio : 2.40:1 Frame rate mode : Constant Frame rate : 24.000 FPS Color space : YUV Chroma subsampling : 4:2:0 Bit depth : 8 bits Scan type : Progressive Bits/(Pixel*Frame) : 0.240 Stream size : 2.86 GiB (78%) Title : Enigma Writing library : x264 core 144 r2525 40bb568 Encoding settings : cabac=1 / ref=11 / deblock=1:-3:-3 / analyse=0x3:0x113 / me=umh / subme=10 / psy=1 / psy_rd=1.00:0.00 / mixed_ref=1 / me_range=32 / chroma_me=1 / trellis=2 / 8x8dct=1 / cqm=0 / deadzone=21,11 / fast_pskip=1 / chroma_qp_offset=-2 / threads=12 / lookahead_threads=3 / sliced_threads=0 / nr=0 / decimate=0 / interlaced=0 / bluray_compat=0 / constrained_intra=0 / bframes=11 / b_pyramid=2 / b_adapt=2 / b_bias=0 / direct=3 / weightb=1 / open_gop=0 / weightp=2 / keyint=240 / keyint_min=24 / scenecut=40 / intra_refresh=0 / rc_lookahead=40 / rc=2pass / mbtree=0 / bitrate=2520 / ratetol=1.0 / qcomp=0.60 / qpmin=0 / qpmax=51 / qpstep=4 / cplxblur=20.0 / qblur=0.5 / vbv_maxrate=50000 / vbv_bufsize=62500 / nal_hrd=none / filler=0 / ip_ratio=1.40 / pb_ratio=1.30 / aq=1:0.90 Language : English Default : Yes Forced : No

Audio #1 ID : 2 Format : AC-3 Format/Info : Audio Coding 3 Mode extension : CM (complete main) Format settings, Endianness : Big Codec ID : A_AC3 Duration : 2 h 46 min Bit rate mode : Constant Bit rate : 192 kb/s Channel(s) : 2 channels Channel positions : Front: L R Sampling rate : 48.0 kHz Frame rate : 31.250 FPS (1536 spf) Compression mode : Lossy Stream size : 229 MiB (6%) Title : MVO Language : Russian Default : Yes Forced : No

Audio #2 ID : 3 Format : AC-3 Format/Info : Audio Coding 3 Mode extension : CM (complete main) Format settings, Endianness : Big Codec ID : A_AC3 Duration : 2 h 46 min Bit rate mode : Constant Bit rate : 448 kb/s Channel(s) : 6 channels Channel positions : Front: L C R, Side: L R, LFE Sampling rate : 48.0 kHz Frame rate : 31.250 FPS (1536 spf) Compression mode : Lossy Stream size : 535 MiB (14%) Title : Dub Language : Hindi Default : No Forced : No

Text #1 ID : 4 Format : UTF-8 Codec ID : S_TEXT/UTF8 Codec ID/Info : UTF-8 Plain Text Title : Forced (songs) Enigma Language : Russian Default : Yes Forced : Yes

Text #2 ID : 5 Format : UTF-8 Codec ID : S_TEXT/UTF8 Codec ID/Info : UTF-8 Plain Text Title : (songs) Honey&Haseena Language : Russian Default : No Forced : No

Text #3 ID : 6 Format : UTF-8 Codec ID : S_TEXT/UTF8 Codec ID/Info : UTF-8 Plain Text Language : English Default : No Forced : No

Menu 00:00:00.000 : en:Chapter 1 00:02:42.375 : en:Chapter 2 00:05:11.458 : en:Chapter 3 00:08:24.458 : en:Chapter 4 00:16:41.541 : en:Chapter 5 00:30:31.791 : en:Chapter 6 00:39:21.791 : en:Chapter 7 00:42:57.500 : en:Chapter 8 00:46:24.541 : en:Chapter 9 00:51:02.416 : en:Chapter 10 01:07:36.416 : en:Chapter 11 01:11:51.041 : en:Chapter 12 01:18:27.875 : en:Chapter 13 01:27:20.000 : en:Chapter 14 01:38:15.333 : en:Chapter 15 01:43:27.416 : en:Chapter 16 01:51:08.166 : en:Chapter 17 02:01:31.000 : en:Chapter 18 02:13:27.833 : en:Chapter 19 02:39:25.250 : en:Chapter 20

Релиз от:

Автор релиза:

krutor.org

Бахубали: Завершение / Bahubali 2: The Conclusion [2017 BDRip-AVC] MVO

GeneralUnique ID : 213337297104290221169323045377393607358 (0xA07F44D4FA3E0AD7AC03C3A6B904C2BE)Complete name : D:\Bahubali.2.The Conclusion.2017.MVO.BDRip.AVC.ExKinoRay.mkvFormat : MatroskaFormat version : Version 2File size : 3.68 GiBDuration : 2 h 46 minOverall bit rate : 3 162 kb/sMovie name : Bahubali 2 (2017) from ExKinoRayEncoded date : UTC 2017-09-24 17:44:05Writing application : mkvmerge v5.6.0 ('Kenya Kane') built on May 27 2012 16:44:04Writing library : libebml v1.2.3 + libmatroska v1.3.0

VideoID : 1Format : AVCFormat/Info : Advanced Video CodecFormat profile : [email protected] settings, CABAC : YesFormat settings, ReFrames : 11 framesCodec ID : V_MPEG4/ISO/AVCDuration : 2 h 46 minBit rate : 2 520 kb/sWidth : 1 024 pixelsHeight : 428 pixelsDisplay aspect ratio : 2.40:1Frame rate mode : ConstantFrame rate : 24.000 FPSColor space : YUVChroma subsampling : 4:2:0Bit depth : 8 bitsScan type : ProgressiveBits/(Pixel*Frame) : 0.240Stream size : 2.87 GiB (78%)Title : EnigmaWriting library : x264 core 144 r2525 40bb568Encoding settings : cabac=1 / ref=11 / deblock=1:-3:-3 / analyse=0x3:0x113 / me=umh / subme=10 / psy=1 / psy_rd=1.00:0.00 / mixed_ref=1 / me_range=32 / chroma_me=1 / trellis=2 / 8x8dct=1 / cqm=0 / deadzone=21,11 / fast_pskip=1 / chroma_qp_offset=-2 / threads=12 / lookahead_threads=3 / sliced_threads=0 / nr=0 / decimate=0 / interlaced=0 / bluray_compat=0 / constrained_intra=0 / bframes=11 / b_pyramid=2 / b_adapt=2 / b_bias=0 / direct=3 / weightb=1 / open_gop=0 / weightp=2 / keyint=240 / keyint_min=24 / scenecut=40 / intra_refresh=0 / rc_lookahead=40 / rc=2pass / mbtree=0 / bitrate=2520 / ratetol=1.0 / qcomp=0.60 / qpmin=0 / qpmax=51 / qpstep=4 / cplxblur=20.0 / qblur=0.5 / vbv_maxrate=50000 / vbv_bufsize=62500 / nal_hrd=none / filler=0 / ip_ratio=1.40 / pb_ratio=1.30 / aq=1:0.90Language : EnglishDefault : YesForced : No

Audio #1ID : 2Format : AC-3Format/Info : Audio Coding 3Mode extension : CM (complete main)Format settings, Endianness : BigCodec ID : A_AC3Duration : 2 h 46 minBit rate mode : ConstantBit rate : 192 kb/sChannel(s) : 2 channelsChannel positions : Front: L RSampling rate : 48.0 kHzFrame rate : 31.250 FPS (1536 spf)Compression mode : LossyStream size : 229 MiB (6%)Title : MVOLanguage : RussianDefault : YesForced : Yes

Audio #2ID : 3Format : AC-3Format/Info : Audio Coding 3Mode extension : CM (complete main)Format settings, Endianness : BigCodec ID : A_AC3Duration : 2 h 46 minBit rate mode : ConstantBit rate : 448 kb/sChannel(s) : 6 channelsChannel positions : Front: L C R, Side: L R, LFESampling rate : 48.0 kHzFrame rate : 31.250 FPS (1536 spf)Compression mode : LossyStream size : 535 MiB (14%)Title : DubLanguage : HindiDefault : NoForced : No

Text #1ID : 4Format : UTF-8Codec ID : S_TEXT/UTF8Codec ID/Info : UTF-8 Plain TextTitle : Forced (songs+end) EnigmaLanguage : RussianDefault : YesForced : Yes

Text #2ID : 5Format : UTF-8Codec ID : S_TEXT/UTF8Codec ID/Info : UTF-8 Plain TextTitle : (songs) Honey&HaseenaLanguage : RussianDefault : NoForced : No

Text #3ID : 6Format : UTF-8Codec ID : S_TEXT/UTF8Codec ID/Info : UTF-8 Plain TextTitle : Full (Enigma)Language : RussianDefault : NoForced : No

Text #4ID : 7Format : UTF-8Codec ID : S_TEXT/UTF8Codec ID/Info : UTF-8 Plain TextLanguage : EnglishDefault : NoForced : No

Menu00:00:00.000 : en:Chapter 100:02:42.375 : en:Chapter 200:05:11.458 : en:Chapter 300:08:24.458 : en:Chapter 400:16:41.541 : en:Chapter 500:30:31.791 : en:Chapter 600:39:21.791 : en:Chapter 700:42:57.500 : en:Chapter 800:46:24.541 : en:Chapter 900:51:02.416 : en:Chapter 1001:07:36.416 : en:Chapter 1101:11:51.041 : en:Chapter 1201:18:27.875 : en:Chapter 1301:27:20.000 : en:Chapter 1401:38:15.333 : en:Chapter 1501:43:27.416 : en:Chapter 1601:51:08.166 : en:Chapter 1702:01:31.000 : en:Chapter 1802:13:27.833 : en:Chapter 1902:39:25.250 : en:Chapter 20

piratbit.ru

Скачать торрент Бахубали: Завершение / Bahubali 2: The Conclusion (2017) BDRip-AVC от ExKinoRay

Информация о фильмеНазвание: Бахубали: ЗавершениеОригинальное название: Bahubali 2: The ConclusionГод выпуска: 2017Жанр: Фэнтези, боевик, драма, приключенияВыпущено: Индия, Arka Mediaworks, Beyond Studio Entertainments VFXРежиссер: С.С. РаджамулиВ ролях: Прабхас, Рана Даггубати, Анушка Шетти, Таманна Бхатия, Сатхьярадж, Рамья Кришна, Нассер, Суббараджу

Описание: Старый Каттаппа рассказывает Шиве, почему убил его отца Амарендру. После того, как тот был усыновлён королевой Шивагами, старший сводный брат Бхаллаладева всегда ему завидовал. Зависть достигла апогея после битвы с дикими племенами, когда Шивагами нарекла младшего сына наследником королевства. Бхаллаладева и его хитрый отец начинают плести грязные интриги, чтобы сжить Амарендру со свету.

Продолжительность: 02:48:04Перевод: Любительский (многоголосый, закадровый)Субтитры: Русские (2 х на песни (Enigma (с хинди), Honey&Haseena (с тамили)), английские (полные)

Файл Формат: MKVКачество: BDRip-AVC Видео: AVC, 1024х428 (2.40:1), 2520 kbps, 24,000 fps, 0,240 bppАудио 1: AC-3, 48.0 KHz, 2.0 ch, 192 Kbps, CBR (Russian)Аудио 2: AC-3, 48.0 KHz, 5.1 ch, 448 Kbps, CBR (Hindi)

Озвучка: Денис Строев, Давид Петросян, Константин Федосеев, Левша Фёрст и Маргарита Сахно Перевод и редакция: ❖ Honey&Haseena ❖ Звукорежиссёр: Михаил Шорыгин

Язык оригинальной дорожки Тамили Фильм переведён и озвучен по специальному заказу Селены Шелестовой

Навигация по главам: Есть

MI

General Unique ID : 175022085583634975368713564175998790791 (0x83AC070DDFF39CF78028AA7A37FA2C87) Complete name : D:Bahubali.2.The Conclusion.2017.MVO.BDRip.AVC.ExKinoRay.mkv Format : Matroska Format version : Version 2 File size : 3.68 GiB Duration : 2 h 46 min Overall bit rate : 3 161 kb/s Movie name : Bahubali 2 (2017) from ExKinoRay Encoded date : UTC 2017-09-06 15:01:17 Writing application : mkvmerge v5.6.0 ('Kenya Kane') built on May 27 2012 16:44:04 Writing library : libebml v1.2.3 + libmatroska v1.3.0

Video ID : 1 Format : AVC Format/Info : Advanced Video Codec Format profile : [email protected] Format settings, CABAC : Yes Format settings, ReFrames : 11 frames Codec ID : V_MPEG4/ISO/AVC Duration : 2 h 46 min Bit rate : 2 520 kb/s Width : 1 024 pixels Height : 428 pixels Display aspect ratio : 2.40:1 Frame rate mode : Constant Frame rate : 24.000 FPS Color space : YUV Chroma subsampling : 4:2:0 Bit depth : 8 bits Scan type : Progressive Bits/(Pixel*Frame) : 0.240 Stream size : 2.86 GiB (78%) Title : Enigma Writing library : x264 core 144 r2525 40bb568 Encoding settings : cabac=1 / ref=11 / deblock=1:-3:-3 / analyse=0x3:0x113 / me=umh / subme=10 / psy=1 / psy_rd=1.00:0.00 / mixed_ref=1 / me_range=32 / chroma_me=1 / trellis=2 / 8x8dct=1 / cqm=0 / deadzone=21,11 / fast_pskip=1 / chroma_qp_offset=-2 / threads=12 / lookahead_threads=3 / sliced_threads=0 / nr=0 / decimate=0 / interlaced=0 / bluray_compat=0 / constrained_intra=0 / bframes=11 / b_pyramid=2 / b_adapt=2 / b_bias=0 / direct=3 / weightb=1 / open_gop=0 / weightp=2 / keyint=240 / keyint_min=24 / scenecut=40 / intra_refresh=0 / rc_lookahead=40 / rc=2pass / mbtree=0 / bitrate=2520 / ratetol=1.0 / qcomp=0.60 / qpmin=0 / qpmax=51 / qpstep=4 / cplxblur=20.0 / qblur=0.5 / vbv_maxrate=50000 / vbv_bufsize=62500 / nal_hrd=none / filler=0 / ip_ratio=1.40 / pb_ratio=1.30 / aq=1:0.90 Language : English Default : Yes Forced : No

Audio #1 ID : 2 Format : AC-3 Format/Info : Audio Coding 3 Mode extension : CM (complete main) Format settings, Endianness : Big Codec ID : A_AC3 Duration : 2 h 46 min Bit rate mode : Constant Bit rate : 192 kb/s Channel(s) : 2 channels Channel positions : Front: L R Sampling rate : 48.0 kHz Frame rate : 31.250 FPS (1536 spf) Compression mode : Lossy Stream size : 229 MiB (6%) Title : MVO Language : Russian Default : Yes Forced : No

Audio #2 ID : 3 Format : AC-3 Format/Info : Audio Coding 3 Mode extension : CM (complete main) Format settings, Endianness : Big Codec ID : A_AC3 Duration : 2 h 46 min Bit rate mode : Constant Bit rate : 448 kb/s Channel(s) : 6 channels Channel positions : Front: L C R, Side: L R, LFE Sampling rate : 48.0 kHz Frame rate : 31.250 FPS (1536 spf) Compression mode : Lossy Stream size : 535 MiB (14%) Title : Dub Language : Hindi Default : No Forced : No

Text #1 ID : 4 Format : UTF-8 Codec ID : S_TEXT/UTF8 Codec ID/Info : UTF-8 Plain Text Title : Forced (songs) Enigma Language : Russian Default : Yes Forced : Yes

Text #2 ID : 5 Format : UTF-8 Codec ID : S_TEXT/UTF8 Codec ID/Info : UTF-8 Plain Text Title : (songs) Honey&Haseena Language : Russian Default : No Forced : No

Text #3 ID : 6 Format : UTF-8 Codec ID : S_TEXT/UTF8 Codec ID/Info : UTF-8 Plain Text Language : English Default : No Forced : No

Menu 00:00:00.000 : en:Chapter 1 00:02:42.375 : en:Chapter 2 00:05:11.458 : en:Chapter 3 00:08:24.458 : en:Chapter 4 00:16:41.541 : en:Chapter 5 00:30:31.791 : en:Chapter 6 00:39:21.791 : en:Chapter 7 00:42:57.500 : en:Chapter 8 00:46:24.541 : en:Chapter 9 00:51:02.416 : en:Chapter 10 01:07:36.416 : en:Chapter 11 01:11:51.041 : en:Chapter 12 01:18:27.875 : en:Chapter 13 01:27:20.000 : en:Chapter 14 01:38:15.333 : en:Chapter 15 01:43:27.416 : en:Chapter 16 01:51:08.166 : en:Chapter 17 02:01:31.000 : en:Chapter 18 02:13:27.833 : en:Chapter 19 02:39:25.250 : en:Chapter 20

Релиз от:

Автор релиза:

mrutor.org

bahubali 2 торрент скачать | Скачать торренты в BDRip и HDRip качестве

Bahubali 2: The Conclusion (2017) Hindi - 720p DESISCR - 1.5GB1.5 GBBahubali.2.The.Conclusion.2017.1080p.BRRip.x264.Hindi.AAC-Ozlem2.44 GBБахубали: Завершение / Bahubali 2: The Conclusion (2017) WEB-DLRip | L2.2 GBБахубали: Завершение / Bahubali 2: The Conclusion / 2017 / ПМ / WEB-DLRip / 1.88 ГБ1.88 GBBahubali 2 - The Conclusion 2017 x264 DesiPDVD Rip AAC 2.0 -DDR1.47 GBБахубали: Завершение / Bahubali 2: The Conclusion (С.С. Раджамули / S.S. Rajamouli) [2017, Индия, Фэнтези, боевик, драма, приключения, WEBRip] MVO + Sub Rus (песни)2.13 GBBahubali - 2015 Hindi - WEBHD x264 - 720p Untouched1.53 GBBahubali The Beginning (2015) Hindi 720p WebDL x264 AAC - Hon3y3.37 GBBahubali - 2015 Hindi - WEBHD x264 - 720p Untouched1.53 GBБахубали: Завершение / Bahubali 2: The Conclusion / 2017 / ПМ / WEB-DLRip (1080p) / 6.57 ГБ6.57 GBBahubali 2: The Conclusion (2017) 1CD x264 CAM Rip MP3 2.0 -DDR786.12 MBBahubali 2 2017 Hindi 720p DVDRip x264-LOKI-M2Tv ExCluSivE1.47 GBBahubali (2015) 720p Blu-ray x264 Hindi DTS 5.1 ESub [DDR]6.88 GBDownrrent: Bahubali 2 (2017) Telugu - DVDSCR - 576p -x2642.21 GBБахубали: Завершение / Bahubali 2: The Conclusion (2017) WEB-DLRip1.88 GBBahubali 2 2017 720p DVDSCR (Hindi, Telugu, Tamil and Malayalam)3.79 GBBahubali 2 (2017) 720p DesiSCR Rip - x264 AC3 5.1 (MultiAudio) -3.79 GBBAHUBALI 2 - THE CONCLUSION (2017) - Desi CAMRip - XviD - 1xCD -704.95 MBBAHUBALI 2 - THE CONCLUSION (2017) - CAMRip - x264 - AC3 2.0 - D1.45 GBBahubali (2015) 1080p Blu-ray x264 DTS 5.1 ESub [DDR-Exclusive]8.84 GBBahubali 2 (2017) Hindi 720p BluRay DTS x264 - M2Tv ExCluSivE3.81 GBBahubali 2 The Conclusion 2017 Hindi Movies DVDRip XviD ESubs Ne704.72 MBBahubali 2 The Conclusion 2017 Hindi Movies HD TS XviD Clean Aud705.73 MBБахубали: Завершение / Bahubali 2: The Conclusion (С.С. Раджамули / S.S. Rajamouli) [2017, Индия, Фэнтези, боевик, драма, приключения, BDRip] MVO + Sub Rus (песни)2.12 GBBahubali.2.(2017).Hindi.CAM-Rip.x264.Aac by sam898.68 MBBahubali - DesiSCR - 2xCD - Dual Audio - [DDR]1.38 GBBahubali.-.The.Beginning.2015.Hindi.1080p.BluRay.DTS-HD-Hon3y16 GBBahubali (2015) 720p DVDSCR - [Telugu-Hindi] - 1.5GB - ShAaNiG1.5 GBБахубали (Дилогия) / Bahubali: Dilogija / 2015-2017 / 2 х ПМ, СТ / BDRip (1080p) / 22.77 ГБ22.77 GBBahubali 2: The Conclusion {2017} DesiScr Rip x264 AAC {Team DUS2.18 GBBahubali 2 The Conclusion 2017 Hindi Movies HDSCam XviD Clean Au705.34 MBБахубали: Завершение / Bahubali 2: The Conclusion / 2017 / ПМ / WEB-DLRip (AVC) / 3.13 ГБ3.13 GBБахубали: Завершение / Bahubali 2: The Conclusion / 2017 / ПМ / BDRip / 2.06 ГБ2.06 GBБахубали (Дилогия) / Bahubali: Dilogija / 2015-2017 / 2 x ПМ, СТ / BDRip (1080p) / 22.77 ГБ22.77 GBBahubali (2015) (Malyalam) DVDRip x264 AAC ESubs [DDR]1.69 GBBahubali: The Beginning 2015 BDrip AAC X264 Dual1.24 GBBahubali 2 The Conclusion (2017) Hindi [Mp3~320kbps]42.48 MBBahubali 2 The Conclusion 2017 Hindi Pre DvDRip AAC - Hon3y661.11 MBBahubali 2 (2017) Hindi 1CD DvDRip x264 MP3 ESub M2Tv ExclusivE697.46 MBБахубали: Завершение / Bahubali 2: The Conclusion / 2017 / ПМ / BDRip (1080p) / 10.78 ГБ10.78 GBBahubali.2.(2017).Cam.Hindi.x264-GunGravE.mkv699.53 MBБахубали: Завершение / Bahubali 2: The Conclusion / 2017 / ПМ / BDRip (1080p) / 11.16 ГБ11.16 GBBahubali-The Beginning {2015} HDRip XviD AC3 {Team DUS} - jnmjy2.19 GBBAHUBALI 2 - THE CONCLUSION (2017) - Desi CAMRip - x264 - 1CD -697.64 MBБахубали: Завершение / Bahubali 2: The Conclusion / 2017 / ПМ / BDRip (AVC) / 3.68 ГБ3.68 GBBahubali 2 2017 DVD9 NTSC M2Tv ExclusiVe6.95 GBBahubali 2 (2017) 1CD CAM Rip - x265 AAC (Audio Cleaned) - DUS701.51 MBBahubali 2 (2017) Hindi DvDRip x264 DD5.1 ESub M2Tv ExclusivE2.22 GBBahubali 2 - 2017 - Desi CAM - Hindi - 1CD - x264 - AAC - Makint697.56 MBБахубали: Завершение / Bahubali 2: The Conclusion (С.С. Раджамули) [2017 г., фэнтези, боевик, драма, приключения, WEB-DLRip] MVO (Honey&Haseena)1.88 GB tparser.org – торрент поисковик по популярным торрент трекерам. Находить и скачивать новинки кино в HDRip и BDRip качестве через tparser намного проще! Добро пожаловать на крупный торрент архив фильмов и игр tparser.org. Вам больше не придется искать торренты на основных торрент трекерах в поисках нужной раздачи – мы предлагаем найти и скачать фильмы в хорошем качестве прямо на нашем сайте. Наш сервис поиска торрентов в реальном времени собирает информацию с крупных торрент трекеров и сортирует полученные результаты в удобную таблицу. Скачивайте торренты без ограничений и без всяких регистраций на трекерах. Начните скачивать торрент bahubali 2 прямо сейчас!

tparser.org

Скачать торрент Бахубали: Начало / Baahubali: The Beginning (2015) HDRip-AVC от ExKinoRay

Название: Бахубали: НачалоОригинальное название: Baahubali: The BeginningГод выпуска: 2015Жанр: Боевик, приключения, военный, историяВыпущено: Индия, Arka Mediaworks, Indian Artists Computer Graphics, MakutaРежиссер: С.С. РаджамулиВ ролях: Прабхас, Рана Даггубати, Анушка Шетти, Таманна Бхатия, Рамья Кришна, Нассер, Судип, Сатьярадж, Таникелла Бхарани

О фильме: Всё начинается со спасения ребенка, которого должны были убить солдаты, посланные правителем королевства Махишмати. Спустя годы, мальчик превращается в крепкого и рослого юношу Шивуду. Однажды он находит маску и решает во что бы то ни стало разыскать ее владельца, не подозревая, что она принадлежит прекрасной воительнице, которая всем своим кланом пытается вызволить из плена королеву Девасену, заточенную жестоким тираном Бхаллалой Девой...

Качество: HDRip \(AVC\)Видео: MPEG-4 AVC, 2857 Кбит/с, 1024х440, 24.000 кадр/сАудио: Русский (AC3, 6 ch, 448 Кбит/с), хинди (AC3, 6 ch, 384 Кбит/с)Продолжительность: 02:39:32Озвучивание: Любительское (двухголосое) [DeadSno & den904]Перевод и редакция: Honey&Haseena Субтитры: Русские (на песни)

MI

General Unique ID : 187849628683608897493026050928078528737 (0x8D5285C20F7E67D3A686DDD51C64A0E1) Complete name : C:Baahubali.Beginning.2015.L2.HDRip.AVC.ExKinoRay.mkv Format : Matroska Format version : Version 4 / Version 2 File size : 4.11 GiB Duration : 2h 39mn Overall bit rate : 3 686 Kbps Movie name : Baahubali Beginning 2015 from ExKinoRay Encoded date : UTC 2015-12-22 01:16:25 Writing application : mkvmerge v6.6.0 ('The Edge Of The In Between') built on Dec 1 2013 17:55:00 Writing library : libebml v1.3.0 + libmatroska v1.4.1

Video ID : 1 Format : AVC Format/Info : Advanced Video Codec Format profile : [email protected] Format settings, CABAC : Yes Format settings, ReFrames : 10 frames Codec ID : V_MPEG4/ISO/AVC Duration : 2h 39mn Bit rate : 2 857 Kbps Width : 1 024 pixels Height : 440 pixels Display aspect ratio : 2.35:1 Frame rate mode : Constant Frame rate : 24.000 fps Color space : YUV Chroma subsampling : 4:2:0 Bit depth : 8 bits Scan type : Progressive Bits/(Pixel*Frame) : 0.264 Stream size : 3.10 GiB (75%) Title : Enigma Writing library : x264 core 133 r2334 a3ac64b Encoding settings : cabac=1 / ref=10 / deblock=1:-2:-2 / analyse=0x3:0x113 / me=umh / subme=10 / psy=1 / psy_rd=1.05:0.15 / mixed_ref=1 / me_range=32 / chroma_me=1 / trellis=2 / 8x8dct=1 / cqm=0 / deadzone=21,11 / fast_pskip=0 / chroma_qp_offset=-3 / threads=12 / lookahead_threads=2 / sliced_threads=0 / nr=0 / decimate=0 / interlaced=0 / bluray_compat=0 / constrained_intra=0 / bframes=9 / b_pyramid=2 / b_adapt=2 / b_bias=0 / direct=3 / weightb=1 / open_gop=0 / weightp=2 / keyint=240 / keyint_min=24 / scenecut=40 / intra_refresh=0 / rc=2pass / mbtree=0 / bitrate=2857 / ratetol=1.0 / qcomp=0.60 / qpmin=0 / qpmax=51 / qpstep=4 / cplxblur=20.0 / qblur=0.5 / ip_ratio=1.40 / pb_ratio=1.30 / aq=1:1.00 Language : English Default : Yes Forced : No Color primaries : BT.709 Transfer characteristics : BT.709 Matrix coefficients : BT.709

Audio #1 ID : 2 Format : AC-3 Format/Info : Audio Coding 3 Mode extension : CM (complete main) Format settings, Endianness : Big Codec ID : A_AC3 Duration : 2h 39mn Bit rate mode : Constant Bit rate : 448 Kbps Channel(s) : 6 channels Channel positions : Front: L C R, Side: L R, LFE Sampling rate : 48.0 KHz Bit depth : 16 bits Compression mode : Lossy Stream size : 511 MiB (12%) Title : DeadSno & Den904 Language : Russian Default : Yes Forced : No

Audio #2 ID : 3 Format : AC-3 Format/Info : Audio Coding 3 Mode extension : CM (complete main) Format settings, Endianness : Big Codec ID : A_AC3 Duration : 2h 39mn Bit rate mode : Constant Bit rate : 384 Kbps Channel(s) : 6 channels Channel positions : Front: L C R, Side: L R, LFE Sampling rate : 48.0 KHz Bit depth : 16 bits Compression mode : Lossy Stream size : 438 MiB (10%) Language : Hindi Default : No Forced : No

Text ID : 4 Format : UTF-8 Codec ID : S_TEXT/UTF8 Codec ID/Info : UTF-8 Plain Text Title : Songs only Language : Russian Default : No Forced : No

Menu 00:00:00.000 : en:Chapter 01 00:04:45.750 : en:Chapter 02 00:10:28.041 : en:Chapter 03 00:15:24.875 : en:Chapter 04 00:18:42.166 : en:Chapter 05 00:20:40.333 : en:Chapter 06 00:26:51.125 : en:Chapter 07 00:33:06.833 : en:Chapter 08 00:41:03.583 : en:Chapter 09 01:02:02.416 : en:Chapter 10 01:05:31.250 : en:Chapter 11 01:11:45.541 : en:Chapter 12 01:21:27.625 : en:Chapter 13 01:37:14.000 : en:Chapter 14 01:44:07.208 : en:Chapter 15 01:48:28.083 : en:Chapter 16 01:51:42.208 : en:Chapter 17 01:57:32.208 : en:Chapter 18 02:19:32.666 : en:Chapter 19 02:29:12.583 : en:Chapter 20

Релиз от:

Автор релиза:

mrutor.org

Завершение (2017) скачать торрент в хорошем качестве

Информация о фильмеНазвание: Бахубали: ЗавершениеОригинальное название: Bahubali 2: The ConclusionГод выпуска: 2017Жанр: Фэнтези, боевик, драма, приключенияВыпущено: Индия, Arka Mediaworks, Beyond Studio Entertainments VFXРежиссер: С.С. РаджамулиВ ролях: Прабхас, Рана Даггубати, Анушка Шетти, Таманна Бхатия, Сатхьярадж, Рамья Кришна, Нассер, Суббараджу

Описание: Старый Каттаппа рассказывает Шиве, почему убил его отца Амарендру. После того, как тот был усыновлён королевой Шивагами, старший сводный брат Бхаллаладева всегда ему завидовал. Зависть достигла апогея после битвы с дикими племенами, когда Шивагами нарекла младшего сына наследником королевства. Бхаллаладева и его хитрый отец начинают плести грязные интриги, чтобы сжить Амарендру со свету.

Продолжительность: 02:48:04Перевод: Любительский (многоголосый, закадровый)Субтитры: Русские (на песни)

Файл Формат: MKVКачество: WEB-DLRip-AVC Видео: AVC, 1024х404 (2.535:1), 2470 kbps, 24,000 fps, 0,249 bppАудио: 48 kHz, AC3, 2.0, 192 Kbps | RUS |

Озвучка: Денис Строев, Давид Петросян, Константин Федосеев, Левша Фёрст и Маргарита СахноПеревод и редакция: Honey&Haseena Звукорежиссёр: Михаил Шорыгин

Язык оригинальной дорожки ТамилиФильм переведён и озвучен по специальному заказу Селены Шелестовой

GeneralUnique ID : 177220350555175023721929148714289906934 (0x855365E299C3F96B849AC3FE2AC6C4F6)Complete name : D:Bahubali.Zakluchenie.2017.MVO.WEB-DLRip.AVC.ExKinoRay.mkvFormat : MatroskaFormat version : Version 2File size : 3.13 GiBDuration : 2 h 48 minOverall bit rate : 2 664 kb/sMovie name : Bahubali 2: The Conclusion (2017) from ExKinoRayEncoded date : UTC 2017-06-17 14:10:35Writing application : mkvmerge v5.6.0 ('Kenya Kane') built on May 27 2012 16:44:04Writing library : libebml v1.2.3 + libmatroska v1.3.0

VideoID : 1Format : AVCFormat/Info : Advanced Video CodecFormat profile : [email protected] settings, CABAC : YesFormat settings, ReFrames : 10 framesCodec ID : V_MPEG4/ISO/AVCDuration : 2 h 48 minBit rate : 2 470 kb/sWidth : 1 024 pixelsHeight : 404 pixelsDisplay aspect ratio : 2.535Frame rate mode : ConstantFrame rate : 24.000 FPSColor space : YUVChroma subsampling : 4:2:0Bit depth : 8 bitsScan type : ProgressiveBits/(Pixel*Frame) : 0.249Stream size : 2.84 GiB (91%)Title : EnigmaWriting library : x264 core 144 r2525 40bb568Encoding settings : cabac=1 / ref=10 / deblock=1:-2:-2 / analyse=0x3:0x113 / me=umh / subme=10 / psy=1 / psy_rd=1.03:0.10 / mixed_ref=1 / me_range=32 / chroma_me=1 / trellis=2 / 8x8dct=1 / cqm=0 / deadzone=21,11 / fast_pskip=1 / chroma_qp_offset=-3 / threads=12 / lookahead_threads=3 / sliced_threads=0 / nr=0 / decimate=0 / interlaced=0 / bluray_compat=0 / constrained_intra=0 / bframes=10 / b_pyramid=2 / b_adapt=2 / b_bias=0 / direct=3 / weightb=1 / open_gop=0 / weightp=2 / keyint=240 / keyint_min=24 / scenecut=40 / intra_refresh=0 / rc_lookahead=40 / rc=2pass / mbtree=0 / bitrate=2470 / ratetol=1.0 / qcomp=0.60 / qpmin=0 / qpmax=51 / qpstep=4 / cplxblur=20.0 / qblur=0.5 / vbv_maxrate=50000 / vbv_bufsize=62500 / nal_hrd=none / filler=0 / ip_ratio=1.40 / pb_ratio=1.30 / aq=1:1.00Language : EnglishDefault : YesForced : NoColor range : LimitedColor primaries : BT.709Transfer characteristics : BT.709Matrix coefficients : BT.709

AudioID : 2Format : AC-3Format/Info : Audio Coding 3Mode extension : CM (complete main)Format settings, Endianness : BigCodec ID : A_AC3Duration : 2 h 48 minBit rate mode : ConstantBit rate : 192 kb/sChannel(s) : 2 channelsChannel positions : Front: L RSampling rate : 48.0 kHzFrame rate : 31.250 FPS (1536 spf)Compression mode : LossyStream size : 231 MiB (7%)Title : MVO (Honey&Haseena)Language : RussianDefault : YesForced : No

Автор релиза:

rutorg2.ru

206
655
18-06-2017, 14:57
3.13 GB
Связанные раздачи

РУТОРГ :: Бахубали: Завершение / Bahubali 2: The Conclusion (2017) BDRip-AVC от ExKinoRay

xn--c1avfbif.org

Информация о фильмеНазвание: Бахубали: ЗавершениеОригинальное название: Bahubali 2: The ConclusionГод выпуска: 2017Жанр: Фэнтези, боевик, драма, приключенияВыпущено: Индия, Arka Mediaworks, Beyond Studio Entertainments VFXРежиссер: С.С. РаджамулиВ ролях: Прабхас, Рана Даггубати, Анушка Шетти, Таманна Бхатия, Сатхьярадж, Рамья Кришна, Нассер, Суббараджу

Описание: Старый Каттаппа рассказывает Шиве, почему убил его отца Амарендру. После того, как тот был усыновлён королевой Шивагами, старший сводный брат Бхаллаладева всегда ему завидовал. Зависть достигла апогея после битвы с дикими племенами, когда Шивагами нарекла младшего сына наследником королевства. Бхаллаладева и его хитрый отец начинают плести грязные интриги, чтобы сжить Амарендру со свету.

Продолжительность: 02:46:49Перевод: Любительский (многоголосый, закадровый)Субтитры: Русские (2 х на песни (Enigma (с хинди), Honey&Haseena (с тамили)), английские (полные)

Файл Формат: MKVКачество: BDRip-AVC Видео: AVC, 1024х428 (2.40:1), 2520 kbps, 24,000 fps, 0,240 bppАудио 1: AC-3, 48.0 KHz, 2.0 ch, 192 Kbps, CBR (Russian)Аудио 2: AC-3, 48.0 KHz, 5.1 ch, 448 Kbps, CBR (Hindi)

Озвучка: Денис Строев, Давид Петросян, Константин Федосеев, Левша Фёрст и Маргарита Сахно Перевод и редакция: ❖ Honey&Haseena ❖ Звукорежиссёр: Михаил Шорыгин

Язык оригинальной дорожки Тамили Фильм переведён и озвучен по специальному заказу Селены Шелестовой

Навигация по главам: Есть

MI

General Unique ID : 175022085583634975368713564175998790791 (0x83AC070DDFF39CF78028AA7A37FA2C87) Complete name : D:Bahubali.2.The Conclusion.2017.MVO.BDRip.AVC.ExKinoRay.mkv Format : Matroska Format version : Version 2 File size : 3.68 GiB Duration : 2 h 46 min Overall bit rate : 3 161 kb/s Movie name : Bahubali 2 (2017) from ExKinoRay Encoded date : UTC 2017-09-06 15:01:17 Writing application : mkvmerge v5.6.0 ('Kenya Kane') built on May 27 2012 16:44:04 Writing library : libebml v1.2.3 + libmatroska v1.3.0

Video ID : 1 Format : AVC Format/Info : Advanced Video Codec Format profile : [email protected] Format settings, CABAC : Yes Format settings, ReFrames : 11 frames Codec ID : V_MPEG4/ISO/AVC Duration : 2 h 46 min Bit rate : 2 520 kb/s Width : 1 024 pixels Height : 428 pixels Display aspect ratio : 2.40:1 Frame rate mode : Constant Frame rate : 24.000 FPS Color space : YUV Chroma subsampling : 4:2:0 Bit depth : 8 bits Scan type : Progressive Bits/(Pixel*Frame) : 0.240 Stream size : 2.86 GiB (78%) Title : Enigma Writing library : x264 core 144 r2525 40bb568 Encoding settings : cabac=1 / ref=11 / deblock=1:-3:-3 / analyse=0x3:0x113 / me=umh / subme=10 / psy=1 / psy_rd=1.00:0.00 / mixed_ref=1 / me_range=32 / chroma_me=1 / trellis=2 / 8x8dct=1 / cqm=0 / deadzone=21,11 / fast_pskip=1 / chroma_qp_offset=-2 / threads=12 / lookahead_threads=3 / sliced_threads=0 / nr=0 / decimate=0 / interlaced=0 / bluray_compat=0 / constrained_intra=0 / bframes=11 / b_pyramid=2 / b_adapt=2 / b_bias=0 / direct=3 / weightb=1 / open_gop=0 / weightp=2 / keyint=240 / keyint_min=24 / scenecut=40 / intra_refresh=0 / rc_lookahead=40 / rc=2pass / mbtree=0 / bitrate=2520 / ratetol=1.0 / qcomp=0.60 / qpmin=0 / qpmax=51 / qpstep=4 / cplxblur=20.0 / qblur=0.5 / vbv_maxrate=50000 / vbv_bufsize=62500 / nal_hrd=none / filler=0 / ip_ratio=1.40 / pb_ratio=1.30 / aq=1:0.90 Language : English Default : Yes Forced : No

Audio #1 ID : 2 Format : AC-3 Format/Info : Audio Coding 3 Mode extension : CM (complete main) Format settings, Endianness : Big Codec ID : A_AC3 Duration : 2 h 46 min Bit rate mode : Constant Bit rate : 192 kb/s Channel(s) : 2 channels Channel positions : Front: L R Sampling rate : 48.0 kHz Frame rate : 31.250 FPS (1536 spf) Compression mode : Lossy Stream size : 229 MiB (6%) Title : MVO Language : Russian Default : Yes Forced : No

Audio #2 ID : 3 Format : AC-3 Format/Info : Audio Coding 3 Mode extension : CM (complete main) Format settings, Endianness : Big Codec ID : A_AC3 Duration : 2 h 46 min Bit rate mode : Constant Bit rate : 448 kb/s Channel(s) : 6 channels Channel positions : Front: L C R, Side: L R, LFE Sampling rate : 48.0 kHz Frame rate : 31.250 FPS (1536 spf) Compression mode : Lossy Stream size : 535 MiB (14%) Title : Dub Language : Hindi Default : No Forced : No

Text #1 ID : 4 Format : UTF-8 Codec ID : S_TEXT/UTF8 Codec ID/Info : UTF-8 Plain Text Title : Forced (songs) Enigma Language : Russian Default : Yes Forced : Yes

Text #2 ID : 5 Format : UTF-8 Codec ID : S_TEXT/UTF8 Codec ID/Info : UTF-8 Plain Text Title : (songs) Honey&Haseena Language : Russian Default : No Forced : No

Text #3 ID : 6 Format : UTF-8 Codec ID : S_TEXT/UTF8 Codec ID/Info : UTF-8 Plain Text Language : English Default : No Forced : No

Menu 00:00:00.000 : en:Chapter 1 00:02:42.375 : en:Chapter 2 00:05:11.458 : en:Chapter 3 00:08:24.458 : en:Chapter 4 00:16:41.541 : en:Chapter 5 00:30:31.791 : en:Chapter 6 00:39:21.791 : en:Chapter 7 00:42:57.500 : en:Chapter 8 00:46:24.541 : en:Chapter 9 00:51:02.416 : en:Chapter 10 01:07:36.416 : en:Chapter 11 01:11:51.041 : en:Chapter 12 01:18:27.875 : en:Chapter 13 01:27:20.000 : en:Chapter 14 01:38:15.333 : en:Chapter 15 01:43:27.416 : en:Chapter 16 01:51:08.166 : en:Chapter 17 02:01:31.000 : en:Chapter 18 02:13:27.833 : en:Chapter 19 02:39:25.250 : en:Chapter 20

Релиз от:

Автор релиза:


Смотрите также