Скачать бесплатно фильм я плюю на ваши могилы 3 через торрент


Скачать Я плюю на ваши могилы 3 (2015) через торрент

Категория: Фильмы 7062 1 Торрент добавлен: 19-10-2015 Рейтинг:

2015 / триллер, ужасы, криминал / 91 мин.Название: Я плюю на ваши могилы 3 / I Spit on Your Grave 3Страна: СШАРежиссер: Р.Д. Браунштейн Роли сыграли: Дженнифер Лэндон, Даг МакКиэн, Гэбриел Хоган, Харли Джейн Козак, Мишель Херд, Мэг Рейч, Расселл Чарльз Питтс, Карен, Страссман, Эндрю Диц, Адам Даннеллс

Дженнифер никак не может отойти от воспоминаний тех дней, когда над ней было совершено жестокое насилие. Прошло уже несколько лет, но психическое состояние у нее по-прежнему очень шаткое и она делает все, чтобы забыть ту жестокость, которой она подверглась. Она уезжает в другой город и даже изменяет свое имя и, казалось бы, понемногу стала восстанавливаться.

Дженнифер начинает посещать собрания анонимных жертв, пострадавших от насилия, что помогает ей обзавестись новыми друзьями и начать жизнь с чистого листа. Но в ее жизни вновь происходит тяжелый момент, ее новую знакомую насилует и убивает маньяк, которого суд оправдывает и на глазах у ошеломленной Дженнифер, выпускает на свободу.

Девушка попадает в похожую ситуацию, только на этот раз все случилось не с ней, но она решает делать тоже, что и тогда, когда она подверглась сексуальному насилию, то, что не в силах сделать продажная система. Дженнифер начинает охоту на всех причастных к этому насилию, и хочет отнять у них самое дорогое – их жизнь.

Трейлер к фильму Я плюю на ваши могилы 3 (2015)

 

Я плюю на ваши могилы 3 (2015) скачать торрент

Кодек: x264Качество: BDRip 1080pВидео: x264, 8647 kb/s, 1920x800Звук: Russian: AC3, 384 Kb/s (2 ch), English: AC3, 640 Kb/s (6 ch)Любительское (двухголосое)

6,38 Gb

Кодек: x264Качество: BDRip 720pВидео: x264, 4540 Kb/s, 1280x534Звук: Аудио: Russian: AC3, 384 Kb/s (2 ch), English: AC3, 640 Kb/s (6 ch)Любительское (двухголосое)

3,67 Gb

Качество видео: HDRipФормат видео: AVIВидео: 1859 Kb/s, 720x304Аудио: AC3, 384 Kb/s (2 ch)Любительское (двухголосое)

1,44 Gb

Вы находитесь на странице, где можете совершенно бесплатно скачать фильм Я плюю на ваши могилы 3 (2015) в хорошем качестве через торрент, в любом формате, который больше всего вам на данный момент подходит. Скачивание осуществляется через торрент, что означает максимально высокую скорость загрузки. Желаем Вам приятного просмотра!. Не забудь поделиться своими впечатлениями после того как посмотришь фильм Я плюю на ваши могилы 3 (2015).

Информация Посетители, находящиеся в группе Гости, не могут оставлять комментарии к данной публикации.

psp-gu.ru

Я плюю на ваши могилы 3 через торрент

Размер: 1.44 GB | Добавлен: 2 года назад | Торрент скачан:1065 раз
Реклама Дарим 3000 рублей за регистрацию, не упусти свой шанс получить шикарный бонус!!!

22-10-2015 20:42 Я плюю на ваши могилы 3 Скачать торрент  

Я плюю на ваши могилы 3 / I Spit on Your Grave 3
  • Год выхода: 2015
  • Жанр: триллер, ужасы, криминал
  • Страна: США
  • Продолжительность: 01:31:31
  • Перевод: Профессиональный многоголосый [Лицензия - iTunes]
  • Режиссер: Р.Д. Браунштейн
  • В ролях: Сара Батлер (Jennifer Hills), Дженнифер Лэндон (Marla), Даг МакКиэн (Oscar), Гэбриел Хоган (Detective McDylan), Харли Джейн Козак (Therapist), Мишель Херд (Detective Boyle), Мэг Рейч (Cassie), Расселл Чарльз Питтс (Matthew), Карен Страссман (Lynne), Эндрю Диц (Nicholas Woods), Адам Даннеллс (Cole Watson), Кристофер Хоффман (Ron Merrick)
  • Главная героиня фильма писательница Дженнифер Хиллз начала новую жизнь. Она посещает психотерапевта, и кризисную группу для жертв изнасилований. В группе она знакомится с бойкой и яркой девушкой, которая убеждает её, что месть - это и есть правосудие. Вместе, они запугивают мужчину, который насилует свою падчерицу-подростка из их группы. А потом, подругу насилует и убивает её бывший парень. Пришло время Дженнифер встретиться со своим прошлым. Понесут ли преступники заслуженное наказание? И по какую сторону окажется сама Дженнифер?
  • Качество: HDRip
  • Формат: AVI
  • Видео кодек: XviD
  • Аудио кодек: AC3
  • Видео: XviD, 720x304 (2.35:1), 1859 kbps, 23,976 fps, 0,354 bpp
  • Аудио: русский / AC3 / 5.1 / 48 kHz / 384 kbps / 16 bit
  • Код:

    GeneralComplete name                            : H:\Ya.Pluyu.Na.M0gily.3.2015.D.HDRip.aviFormat                                   : AVIFormat/Info                              : Audio Video InterleaveFile size                                : 1.44 GiBDuration                                 : 1h 31mnOverall bit rate                         : 2 253 KbpsWriting application                      : VirtualDubMod 1.5.10.3 | www.virtualdub-fr.org || (build 2550/release)

    VideoID                                       : 0Format                                   : MPEG-4 VisualFormat profile                           : Advanced [email protected] settings, BVOP                    : 2Format settings, QPel                    : NoFormat settings, GMC                     : No warppointsFormat settings, Matrix                  : Default (MPEG)Codec ID                                 : XVIDCodec ID/Hint                            : XviDDuration                                 : 1h 31mnBit rate                                 : 1 860 KbpsWidth                                    : 720 pixelsHeight                                   : 304 pixelsDisplay aspect ratio                     : 2.35:1Frame rate                               : 23.976 fpsColor space                              : YUVChroma subsampling                       : 4:2:0Bit depth                                : 8 bitsScan type                                : ProgressiveCompression mode                         : LossyBits/(Pixel*Frame)                       : 0.354Stream size                              : 1.19 GiB (83%)Writing library                          : XviD 1.2.1 (UTC 2008-12-04)

    AudioID                                       : 1Format                                   : AC-3Format/Info                              : Audio Coding 3Mode extension                           : CM (complete main)Codec ID                                 : 2000Duration                                 : 1h 31mnBit rate mode                            : ConstantBit rate                                 : 384 KbpsChannel(s)                               : 6 channelsChannel positions                        : Front: L C R, Side: L R, LFESampling rate                            : 48.0 KHzBit depth                                : 16 bitsCompression mode                         : LossyStream size                              : 251 MiB (17%)Alignment                                : Split accross interleavesInterleave, duration                     : 42 ms (1.00 video frame)Interleave, preload duration             : 500 ms

    Скриншоты: © Оформление by -Lexx- Скачать Я плюю на ваши могилы 3 через торрент http://pic.pb.wtf/images/6/stazu.jpg Скачать фильм Я плюю на ваши могилы 3 через торрент бесплантно в хорошем качестве qw.png Главная героиня фильма писательница Дженнифер Хиллз начала новую жизнь. Она посещает психотерапевта, и кризисную группу для жертв ... 2015-10-22 20:42 9 10 38

    Loading...

    Loading...

    Рекламный пират

    22-10-2015 20:56 Я плюю на ваши могилы 3 Скачать торрент  

    Все что тут интригует , так то что они вернули героиню с первой части, которая была очень даже неплохой в своем жанре.

    22-10-2015 23:52 Я плюю на ваши могилы 3 Скачать торрент  

    Какое-то бессмысленное мочилово худой бабой здоровых мужиков. Нету никакого продолжения идеи от первых двух фильмов, как будто смотришь другой (идиотский) фильм. Никому не советую смотреть, зря время потратите. Еще в конце показали что

    ... это просто ее фантазии.

    На первой части им надо было остановиться. 3/10....И да продолжение следует

    23-10-2015 16:21 Я плюю на ваши могилы 3 Скачать торрент  

    а дубляж будет вроде в кинотеатрах уже паказывали
    !Ворон писал(а):

    Нет не будет.

    23-10-2015 18:34 Я плюю на ваши могилы 3 Скачать торрент  

    Не стоит смотреть, ничего хорошего. Сколько в мире не людей и после этих фильмов их только больше станет.

    28-10-2015 20:44 Я плюю на ваши могилы 3 Скачать торрент  

    :jest3: Вспоминая предыдущие части - я не разочаруюсь! Все части сильные! Око за око! Не фиг трогать слабых!

    29-10-2015 14:47 Я плюю на ваши могилы 3 Скачать торрент  

    Дорогой пользователь! Огромная просьба, поблагодарите релизера, оцените раздачу и оставьте свои комментарий, если Вы скачали Я плюю на ваши могилы 3 через торрент бесплатно! Внесите свою лепту в развитие PiratBit!

    Комментировать посты могут только пользователи прошедшие не сложную регистрацию

    Я плюю на ваши могилы 3 через торрент Скачать бесплатно Я плюю на ваши могилы 3 Я плюю на ваши могилы 3 скачать торрент Я плюю на ваши могилы 3 смотреть онлайн Cкачать фильм Я плюю на ваши могилы 3 бесплатно Я плюю на ваши могилы 3 скачать торрент в хорошем качестве Я плюю на ваши могилы 3 смотреть онлайн бесплатно в хорошем качестве

    Вы не можете начинать темыВы не можете отвечать на сообщенияВы не можете редактировать свои сообщенияВы не можете удалять свои сообщенияВы не можете голосовать в опросахВы не можете прикреплять файлы к сообщениямВы можете скачивать файлы

    piratbit.ru

    Я плюю на ваши могилы 3 через торрент

    Размер: 20.24 GB | Добавлен: 1 год 11 мес. назад | Торрент скачан:54 раза
    Реклама Дарим 3000 рублей за регистрацию, не упусти свой шанс получить шикарный бонус!!!

    02-11-2015 06:21 Я плюю на ваши могилы 3 Скачать торрент  

    Я плюю на ваши могилы 3 / I Spit on Your Grave 3 Год выпуска: 2015Страна: США Жанр: триллер, ужасы, криминалПродолжительность: 01:31:31Перевод: Профессиональный (многоголосый закадровый) [iTunes] Субтитры: Английские, испанские

    Режиссер: Р.Д. Браунштейн / R.D. BraunsteinСценарий: Дэниэл Гилбой / Daniel GilboyПродюсер: Лиза М. Хансен, Пол Хертцберг, Адам Дрисколл, Нил Элман, Энтони Фанкхаузер, Кевин Каша, Гари Нидл, Ричард Шенкман / Lisa M. Hansen, Paul Hertzberg, Adam Driscoll, Neil Elman, Anthony Fankhauser, Kevin Kasha, Gary Needle, Richard SchenkmanОператор: Ричард Дж. Виалет / Richard J. VialetКомпозитор: Эдвин Вендлер / Edwin WendlerХудожник: Глэдис Родригез, Аннинка Велье / Gladys Rodriguez, Anninka VelieМонтаж: Ана Флорит / Ana Florit

    В ролях: Сара Батлер / Sarah Butler (Jennifer Hills), Дженнифер Лэндон / Jennifer Landon (Marla), Даг МакКиэн / Doug McKeon (Oscar), Гэбриел Хоган / Gabriel Hogan (Detective McDylan), Харли Джейн Козак / Harley Jane Kozak (Therapist), Мишель Херд / Michelle Hurd (Detective Boyle), Мэг Рейч / Meg Raich (Cassie), Расселл Чарльз Питтс / Russell Charles Pitts (Matthew)

    Описание: Главная героиня фильма писательница Дженнифер Хиллз начала новую жизнь. Она посещает психотерапевта, и кризисную группу для жертв изнасилований. В группе она знакомится с бойкой и яркой девушкой, которая убеждает её, что месть — это и есть правосудие. Вместе, они запугивают мужчину, который насилует свою падчерицу-подростка из их группы. А потом, подругу насилует и убивает её бывший парень. Пришло время Дженнифер встретиться со своим прошлым. Понесут ли преступники заслуженное наказание? И по какую сторону окажется сама Дженнифер?Сборы в России: $108 322Зрители: Россия 27.3 тыс. Премьера (мир): 2 октября 2015Премьера (РФ): 1 октября 2015

    Качество: BDRemuxФормат: BDMVВидео кодек: H.264 (AVC)Аудио кодеk: AC3 / TrueHDВидео: MPEG-4 AVC, 26946 Кбит/с, 1920х1080, 23.976 кадр/сАудио: Аудио #1: Русский (AC3, 6 ch, 384 Кбит/с, 48 kHz )Аудио #2: Aнглийский (TrueHD, 6 ch, 1457 Кбит/с, 48 kHz )

    Код:

    PLAYLIST REPORT:

    Name:                   00000.MPLSLength:                 1:32:34.272 (h:m:s.ms)Size:                   21 734 486 016 bytesTotal Bitrate:          31,30 Mbps

    VIDEO:

    Codec                   Bitrate             Description -----                   -------             ----------- MPEG-4 AVC Video        26946 kbps          1080p / 23,976 fps / 16:9 / High Profile 4.1

    AUDIO:

    Codec                           Language        Bitrate         Description -----                           --------        -------         ----------- Dolby Digital Audio             Russian         384 kbps        5.1 / 48 kHz / 384 kbps / DN -4dBDolby TrueHD Audio              English         1457 kbps       5.1 / 48 kHz / 1457 kbps / 16-bit (AC3 Embedded: 5.1 / 48 kHz / 640 kbps)

    SUBTITLES:

    Codec                           Language        Bitrate         Description -----                           --------        -------         ----------- Presentation Graphics           English         51,752 kbps Presentation Graphics           Spanish         45,264 kbps

    Скачать Я плюю на ваши могилы 3 через торрент http://i74.fastpic.ru/big/2015/1102/bb/613555a652bc3f85a0b69ddbc1fcbcbb.jpg Скачать фильм Я плюю на ваши могилы 3 через торрент бесплантно в хорошем качестве Описание: Главная героиня фильма писательница Дженнифер Хиллз начала новую жизнь. Она посещает психотерапевта, и кризисную группу для жертв ... 2015-11-02 06:21 8.2 10 5

    Loading...

    Loading...

    Рекламный пират

    Дорогой пользователь! Огромная просьба, поблагодарите релизера, оцените раздачу и оставьте свои комментарий, если Вы скачали Я плюю на ваши могилы 3 через торрент бесплатно! Внесите свою лепту в развитие PiratBit!

    Комментировать посты могут только пользователи прошедшие не сложную регистрацию

    Я плюю на ваши могилы 3 через торрент Скачать бесплатно Я плюю на ваши могилы 3 Я плюю на ваши могилы 3 скачать торрент Я плюю на ваши могилы 3 смотреть онлайн Cкачать фильм Я плюю на ваши могилы 3 бесплатно Я плюю на ваши могилы 3 скачать торрент в хорошем качестве Я плюю на ваши могилы 3 смотреть онлайн бесплатно в хорошем качестве

    Вы не можете начинать темыВы не можете отвечать на сообщенияВы не можете редактировать свои сообщенияВы не можете удалять свои сообщенияВы не можете голосовать в опросахВы не можете прикреплять файлы к сообщениямВы можете скачивать файлы

    piratbit.ru

    Я плюю на ваши могилы 3 через торрент

    GeneralUnique ID                   : 201413395789413303690173650793543255682 (0x9786CF1B9E004D378AC0BE1C38044682)Complete name               : Ya.Pluyu.Na.Vashy.Mogily.2015.DUAL.BDRip.x264.-HELLYWOOD.mkvFormat                      : MatroskaFormat version              : Version 4 / Version 2File size                   : 2.14 GiBDuration                    : 1h 31mnOverall bit rate            : 3 348 KbpsMovie name                  : I Spit on Your Grave 3 (2015) - HELLYWOODEncoded date                : UTC 2010-02-22 21:41:31Writing application         : mkvmerge v5.8.0 ('No Sleep / Pillow') built on Sep 30 2012 10:57:14Writing library             : libebml v1.3.0 + libmatroska v1.4.0

    VideoID                          : 1Format                      : AVCFormat/Info                 : Advanced Video CodecFormat profile              : [email protected] settings, CABAC      : YesFormat settings, ReFrames   : 10 framesCodec ID                    : V_MPEG4/ISO/AVCDuration                    : 1h 31mnBit rate                    : 2 514 KbpsWidth                       : 1 152 pixelsHeight                      : 480 pixelsDisplay aspect ratio        : 2.40:1Frame rate mode             : ConstantFrame rate                  : 23.976 fpsColor space                 : YUVChroma subsampling          : 4:2:0Bit depth                   : 8 bitsScan type                   : ProgressiveBits/(Pixel*Frame)          : 0.190Stream size                 : 1.57 GiB (73%)Title                       : potroksWriting library             : x264 core 148 r2597M e86f3a1Encoding settings           : cabac=1 / ref=10 / deblock=1:-2:-2 / analyse=0x3:0x133 / me=umh / subme=11 / psy=1 / psy_rd=1.00:0.10 / mixed_ref=1 / me_range=48 / chroma_me=1 / trellis=2 / 8x8dct=1 / cqm=0 / deadzone=21,11 / fast_pskip=0 / chroma_qp_offset=-3 / threads=10 / lookahead_threads=2 / sliced_threads=0 / nr=0 / decimate=1 / interlaced=0 / bluray_compat=0 / constrained_intra=0 / bframes=11 / b_pyramid=2 / b_adapt=2 / b_bias=0 / direct=3 / weightb=1 / open_gop=0 / weightp=2 / keyint=250 / keyint_min=23 / scenecut=40 / intra_refresh=0 / rc=2pass / mbtree=0 / bitrate=2514 / ratetol=1.0 / qcomp=0.70 / qpmin=0 / qpmax=69 / qpstep=4 / cplxblur=20.0 / qblur=0.5 / ip_ratio=1.40 / pb_ratio=1.30 / aq=1:0.80Language                    : EnglishDefault                     : YesForced                      : No

    Audio #1ID                          : 2Format                      : AC-3Format/Info                 : Audio Coding 3Mode extension              : CM (complete main)Format settings, Endianness : BigCodec ID                    : A_AC3Duration                    : 1h 31mnBit rate mode               : ConstantBit rate                    : 384 KbpsChannel(s)                  : 6 channelsChannel positions           : Front: L C R, Side: L R, LFESampling rate               : 48.0 KHzCompression mode            : LossyStream size                 : 251 MiB (11%)Title                       : MVO | DD 5.1 @ 384 kbps - iTunesLanguage                    : RussianDefault                     : YesForced                      : No

    Audio #2ID                          : 3Format                      : AC-3Format/Info                 : Audio Coding 3Mode extension              : CM (complete main)Format settings, Endianness : BigCodec ID                    : A_AC3Duration                    : 1h 31mnBit rate mode               : ConstantBit rate                    : 448 KbpsChannel(s)                  : 6 channelsChannel positions           : Front: L C R, Side: L R, LFESampling rate               : 48.0 KHzCompression mode            : LossyStream size                 : 293 MiB (13%)Title                       : Original | DD 5.1 @ 448 kbpsLanguage                    : EnglishDefault                     : NoForced                      : No

    Text #1ID                          : 4Format                      : UTF-8Codec ID                    : S_TEXT/UTF8Codec ID/Info               : UTF-8 Plain TextTitle                       : FullLanguage                    : EnglishDefault                     : NoForced                      : No

    Text #2ID                          : 5Format                      : UTF-8Codec ID                    : S_TEXT/UTF8Codec ID/Info               : UTF-8 Plain TextTitle                       : SDHLanguage                    : EnglishDefault                     : NoForced                      : No

    Text #3ID                          : 6Format                      : UTF-8Codec ID                    : S_TEXT/UTF8Codec ID/Info               : UTF-8 Plain TextTitle                       : SDH-ColoredLanguage                    : EnglishDefault                     : NoForced                      : No

    Menu00:00:00.000                : :(01)00:00:00:00000:06:34.394                : :(02)00:06:34:39400:14:42.047                : :(03)00:14:42:04700:20:19.218                : :(04)00:20:19:21800:28:29.541                : :(05)00:28:29:54100:39:15.019                : :(06)00:39:15:01900:47:19.044                : :(07)00:47:19:04400:58:44.354                : :(08)00:58:44:35401:08:09.752                : :(09)01:08:09:75201:12:49.531                : :(10)01:12:49:53101:18:53.729                : :(11)01:18:53:72901:27:29.911                : :(12)01:27:29:91101:31:30.485                : :(13)01:31:30:485

    piratbit.ru

    Скачать торрент Я плюю на ваши могилы 3 / I Spit on Your Grave 3 (2015) BDRip 720p от Leonardo | iPad

    Я плюю на ваши могилы 3 / I Spit on Your Grave 3

    Страна: СШАГод выпуска: 2015Жанр: триллер, ужасы, криминалПродолжительность: 01:31:30Перевод: Профессиональный (многоголосый закадровый) iTunesОригинальная аудиодорожка: нет

    Режиссер: Р.Д. Браунштейн

    Актеры: Сара Батлер, Дженнифер Лэндон, Даг МакКиэн, Гэбриел Хоган, Харли Джейн Козак, Мишель Херд, Мэг Рейч, Расселл Чарльз Питтс, Карен Страссман, Эндрю Диц

    Описание фильма: Главная героиня фильма писательница Дженнифер Хиллз начала новую жизнь. Она посещает психотерапевта, и кризисную группу для жертв изнасилований. В группе она знакомится с бойкой и яркой девушкой, которая убеждает её, что месть — это и есть правосудие. Вместе, они запугивают мужчину, который насилует свою падчерицу-подростка из их группы. А потом, подругу насилует и убивает её бывший парень. Пришло время Дженнифер встретиться со своим прошлым. Понесут ли преступники заслуженное наказание? И по какую сторону окажется сама Дженнифер?

    ФайлКачество видео: BDRip 720p Исходник: Blu-ray DiscФормат: MP4 Видео кодек: MPEG-4 AVC Аудио кодек: AACВидео: 1280x534 (2.40:1) at 23.976 fps, AVC at 2051 kbps avg, 0.125 bit/pixelАудио: 48.0 KHz, AAC LC, 6 ch, VBR, ~ 192.0 Kbps (Russian)

    Автор рипа: Leonardo 59

    &

    MediaInfo

    * * * MediaInfo Mac 0.7.33.4 file analysis report. * * * MediaInfo Mac is ©2010 by Diego Massanti - http://mediainfo.massanti.com * * * MediaInfoLib by Jerome Martinez - http://mediainfo.sourceforge.net Created on: 07.11.2015 12:24:21 Московское стандартное время Report for file: I Spit on Your Grave 3.2015.720p.IPAD.AAC.x264-LEO.mp4

    General / Container Stream #1 Total Video Streams for this File.................1 Total Audio Streams for this File.................1 Video Codecs Used.................................AVC Audio Codecs Used.................................AAC LC File Format.......................................MPEG-4 Play Time.........................................1h 32mn Total File Size...................................1.44 GiB Total Stream BitRate..............................2 229 Kbps Title (Tag).......................................Я плюю на ваши могилы 3 Copyright (Tag)...................................� 2015 Angel of Vengeance Distribution, LLC. All Rights Reserved Encoded with......................................� 2015 LEONARDO. Video Stream #1 Codec (Human Name)................................AVC Codec (FourCC)....................................avc1 Codec [email protected] Frame Width.......................................1 280 pixels Frame Height......................................534 pixels Frame Rate........................................23.976 fps Total Frames......................................131665 Display Aspect Ratio..............................2.40:1 Scan Type.........................................Progressive Color Space.......................................YUV Codec Settings (Summary)..........................CABAC / 9 Ref Frames QF (like Gordian Knot)............................0.125 Codec Settings (CABAC)............................Yes Codec Settings (Reference Frames).................9 Video Stream Length...............................1h 31mn 31s 528ms Video Stream BitRate..............................2 051 Kbps Video Stream BitRate Mode.........................VBR Bit Depth.........................................8 bits Video Stream Size.................................1.31 GiB (91%) Video Encoder.....................................x264 - core 125 r2208 d9d2288 Video Encoder (Settings)..........................cabac=1 / ref=9 / deblock=1:-3:-3 / analyse=0x3:0x133 / me=umh / subme=11 / psy=1 / psy_rd=1.00:0.00 / mixed_ref=1 / me_range=32 / chroma_me=1 / trellis=2 / 8x8dct=1 / cqm=0 / deadzone=21,11 / fast_pskip=0 / chroma_qp_offset=-2 / threads=12 / lookahead_threads=2 / sliced_threads=0 / nr=0 / decimate=1 / interlaced=0 / bluray_compat=0 / constrained_intra=0 / bframes=8 / b_pyramid=2 / b_adapt=2 / b_bias=0 / direct=1 / weightb=1 / open_gop=0 / weightp=2 / keyint=250 / keyint_min=23 / scenecut=40 / intra_refresh=0 / rc=crf / mbtree=0 / crf=17.5 / qcomp=0.60 / qpmin=0 / qpmax=69 / qpstep=4 / ip_ratio=1.40 / pb_ratio=1.30 / aq=1:1.00 Video Stream Language.............................English Date of Original Encoding.........................UTC 2015-11-07 04:45:25 Audio Stream #1 Codec.............................................AAC Codec (FourCC)....................................40 Audio Stream Length...............................1h 32mn 34s 368ms Audio Stream BitRate..............................197 Kbps Audio Stream BitRate Mode.........................VBR Number of Audio Channels..........................6 Audio Channel's Positions.........................Front: L C R, Side: L R, LFE Sampling Rate.....................................48.0 KHz Audio Stream Size.................................131 MiB (9%) Audio Stream Language.............................Russian Date of Original Encoding.........................UTC 2015-11-07 04:38:30

    krutor.org


    Смотрите также