Я плюю на ваши могилы 1 скачать бесплатно


Я плюю на ваши могилы 2010

www.kinovit.net

Название: Я плюю на ваши могилы : Дилогия / I Spit on Your Grave : Dilogy (2010-2013) BDRip-AVC от R.G. HD-Films | 60 fps
Качество видео: BDRip-AVC / 60fps
Перевод: ДубляжПрофессиональный многоголосый
Формат видео: MKV
Видео: AVC AVC, 1024x432 (2.35:1), 4520 kbps, 59,940 fps, 0,170 bppAVC, 1024x424 (2.40:1), 4802 kbps, 59,940 fps, 0,185 bpp
Аудио: AC3 русский / AC3 / 5.1 / 48 kHz / 640 kbps / 16 bitAC3 / 5.1 / 48 kHz / 448 kbps / 16 bit
Скачать

Загрузка начнется в течение 5 сек.

7.80 GB

Название: Я плюю на ваши могилы / I Spit on Your Grave (2010) Blu-ray 1080p
Качество видео: Blu-ray 1080p
Перевод: Профессиональный (дублированный)
Видео: MPEG-4 1920x1080, 24 fps, 23999 kbps
Аудио: English: DTS-HD MA, 6ch, 48 kHz, 1540 kbps avg (DTS Core: 5.1 / 48 kHz / 768 kbps)Russian: AC3, 6 ch, 48 kHz, 448 kbps avgEnglish: AC3, 6 ch, 48 kHz, 448 kbps avg
Скачать

Загрузка начнется в течение 5 сек.

23.05 GB

Название: Я плюю на ваши могилы / I Spit on Your Grave (2010) BDRip 1080p by msltel | D, A | Расширенная версия, Open Matte
Качество видео: BDRip 1080p
Видео: MPEG-4 AVC, 14 Мбит/с, 1920x1080, 24 кадр/с
Аудио: русский, DTS, 1152 kbps, 6 ch, 48 kHz [Дублированный, Blu-ray]русский, AC3, 448 kbps, 6 ch, 48 kHz [Авторский, Денис Строев]английский, DTS, 1509 kbps, 6 ch, 48 kHz [Оригинал]
Скачать

Загрузка начнется в течение 5 сек.

12.61 GB

Название: Я плюю на ваши могилы / I Spit on Your Grave (2010) BDRip 720p by msltel | D, L1 | Расширенная версия, Open Matte
Качество видео: BDRip 720p
Перевод: Дублированный, любительский одноголосый
Видео: MPEG-4 AVC, 5487 Мбит/с, 1280x720, 24 кадр/с
Аудио: Русский, английский (AC3, 6 ch, 448 Кбит/с)
Скачать

Загрузка начнется в течение 5 сек.

5.25 GB

Название: Я плюю на ваши могилы / I Spit on Your Grave (2010) HDRip от Deadmauvlad | D | Лицензия | Расширенная версия | Open Matte
Качество видео: HDRip
Видео: 720x400 (1.80:1), 23.976 fps, XviD build 73 ~1475 kbps avg, 0.21 bit/pixel
Аудио: 48 kHz, AC3 Dolby Digital, 3/2 (L,C,R,l,r) + LFE ch, ~448 kbps
Скачать

Загрузка начнется в течение 5 сек.

1.46 GB

Название: Я плюю на ваши могилы / I Spit on Your Grave (2010) BDRip 720p от NovaLan | Unrated Cut / Расширенная версия
Качество видео: BDRip 720p
Перевод: Дублированный / Авторский одноголосый (Д.Строев)
Видео: H.264 MPEG-4 AVC, 5364 Мбит/с, 1280x720, 24.000 кадр/с
Аудио: Русский (DTS, 6 ch, 1152 Кбит/с), (AC3, 6 ch, 448 Кбит/с), английский (DTS, 6 ch, 755 Кбит/с)
Скачать

Загрузка начнется в течение 5 сек.

5.83 GB

Название: Я плюю на ваши могилы / I Spit on Your Grave (2010) HDRip от Scarabey | Расширенная версия
Качество видео: HDRip
Перевод: Профессиональный (дублированный)
Видео: 720x304 (2.37:1), 23.976 fps, XviD build 73 ~1459 kbps avg, 0.28 bit/pixel
Аудио: 48 kHz, AC3 Dolby Digital, 3/2 (L,C,R,l,r) + LFE ch, ~448 kbps
Скачать

Загрузка начнется в течение 5 сек.

1.45 GB

Название: Я плюю на ваши могилы / I Spit on Your Grave (2010) HDRip от Scarabey | Расширенная версия
Качество видео: HDRip
Перевод: Профессиональный (дублированный)
Видео: 688x288 (2.39:1), 23.976 fps, XviD build 73 ~825 kbps avg, 0.17 bit/pixel
Аудио: 48 kHz, MPEG Layer 3, 2 ch, ~128.00 kbps avg
Скачать

Загрузка начнется в течение 5 сек.

745.57 MB

Название: Я плюю на ваши могилы / I Spit on Your Grave (2010) HDRip-AVC | Расширенная версия
Качество видео: HDRip-AVC
Перевод: Профессиональный (полное дублирование) + Оригинал
Видео: H.264 724x308 (2.35:1), 23.976 fps, H.264 ~839 kbps, 0.157 b/p
Аудио: Аудио #1 (DUB): AАС-НЕ, 48000Hz, 2 channels (L+R), ~60 Kbps
Скачать

Загрузка начнется в течение 5 сек.

744.23 MB

Название: Я плюю на ваши могилы / I Spit on Your Grave (2010) DVD-9 | Полная версия / UNRATED
Качество видео: DVD9
Перевод: Профессиональный дублированный
Видео: MPEG2 MPEG2, 720*576 (16:9), 25,000 fps, ~6955 kbps avg, 0.668 bit/pixel
Аудио: 48 kHz, AC3 Dolby Digital, 2 (L,R) ch, ~192 kbps avg - Русская
Скачать

Загрузка начнется в течение 5 сек.

6.93 GB

Название: Я плюю на ваши могилы / I Spit on Your Grave (2010) HDRip | КПК от Generalfilm
Качество видео: HDRip | КПК
Видео: кодек: x264, формат: mp4, размер кадра: 320x128, битрейт: 250 кб/с
Аудио: язык: русский, перевод: дублированный (дубляж), кодек: AAC LC 2.0, битрейт: 104 кб/с
Скачать

Загрузка начнется в течение 5 сек.

275.58 MB

Название: Я плюю на ваши могилы / I Spit on Your Grave (2010) BDRip от HELLYWOOD | Unrated Cut
Качество видео: BDRip (источник: BlueBird /Blu-Ray Disc/ 1080p)
Перевод: Профессиональный (Дублированный) |Лицензия| + Оригинал
Формат видео: AVI
Видео: 720x304 (2.37:1), 23.976 fps, XviD build 65 ~1985 kbps avg, 0.38 bit/pixel
Аудио: 48 kHz, AC3 Dolby Digital, 3/2 (L,C,R,l,r) + LFE ch, ~448 kbps |DUB|48 kHz, AC3 Dolby Digital, 3/2 (L,C,R,l,r) + LFE ch, ~448 kbps |ENG|
Скачать

Загрузка начнется в течение 5 сек.

2.18 GB

Название: Я плюю на ваши могилы / I Spit on Your Grave (2010) BDRip от HQ-ViDEO | UNRATED
Качество видео: BDRip (Source: Blu-Ray)
Перевод: Русский дублированный + Оригинальная дорожка (Английская)
Видео: XviD / 720 x 304 / 2.37:1 / 1976 kbps / 23,976 fps
Аудио: Русский / AC3 Dolby Digital / 48 KHz / 448 kbps / 3/2 (L,C,R,l,r) + LFE chАнглийский / AC3 Dolby Digital / 48 KHz / 448 kbps / 3/2 (L,C,R,l,r) + LFE ch
Скачать

Загрузка начнется в течение 5 сек.

2.18 GB

Название: Я плюю на ваши могилы / I Spit on Your Grave (2010) BDRip-AVC от HQ-ViDEO | UNRATED
Качество видео: BDRip-AVC (Source: Blu-Ray)
Перевод: Русский дублированный + Оригинальная дорожка (Английская)
Видео: H.264 / 1016 x 432 / 2.35:1 / 1990 kbps / 23,976 fps
Аудио: Русский / AC3 Dolby Digital / 48 KHz / 448 kbps / 3/2 (L,C,R,l,r) + LFE chАнглийский / AC3 Dolby Digital / 48 KHz / 448 kbps / 3/2 (L,C,R,l,r) + LFE ch
Скачать

Загрузка начнется в течение 5 сек.

2.18 GB

Скачать фильм Я плюю на ваши могилы (2010) через торрент

gig-torrent.net

13 января 2016 07:43 Я плюю на ваши могилы / I Spit on Your Grave (2010) Blu-ray 1080p от BLUEBIRD | ITA Transfer | D .torrent   [Информация о файле (нажмите для просмотра)] Перевод: Профессиональный (полное дублирование) + Итальянский + Оригинал (английский)Субтитры: Русские[PGS]Качество: Blu-ray 1080pФормат: BDMVВидео: 1920x1080 (16:9), 23.976 fps, MPEG-4 AVC Video, ~33995 kbps, High Profile 4.1Аудио#1: DTS-HD Master Audio Russian 1930 kbps 5.1 / 48 kHz / 1930 kbps / 16-bit (DTS Core: 5.1 / 48 kHz / 1152 kbps / 16-bit)|Профессиональный (полное дублирование)|Аудио#2: Dolby Digital Audio Italian 224 kbps 2.0 / 48 kHz / 224 kbpsАудио#3: DTS-HD Master Audio English 3517 kbps 5.1 / 48 kHz / 3517 kbps / 24-bit (DTS Core: 5.1 / 48 kHz / 768 kbps / 24-bit) 31,76 Gb 8 4
13 января 2016 07:43 Я плюю на ваши могилы / I Spit on Your Grave (2010) Blu-ray 1080p .torrent   [Информация о файле (нажмите для просмотра)] Перевод: Профессиональный (дублированный) + оригиналКодек: MPEG-4Качество: Blu-ray 1080pВидео: 1920x1080, 24 fps, 23999 kbpsЗвук: Аудио 1: Russian: DTS-HD MA, 6ch, 48 kHz, 1931 kbps avg (DTS Core: 5.1 / 48 kHz / 1152 kbps)Аудио 2: English: DTS-HD MA, 6ch, 48 kHz, 1540 kbps avg (DTS Core: 5.1 / 48 kHz / 768 kbps)Аудио 3: Russian: AC3, 6 ch, 48 kHz, 448 kbps avgАудио 4: English: AC3, 6 ch, 48 kHz, 448 kbps avgСубтитры: Russian; softsub (PGS) 23,05 Gb 23 5
13 января 2016 07:43 Я плюю на ваши могилы / I Spit on Your Grave (2010) BDRip 1080p by msltel | D, A | Расширенная версия, Open Matte .torrent   [Информация о файле (нажмите для просмотра)] Качество: BDRip 1080pВидео: MPEG-4 AVC, 14 Мбит/с, 1920x1080, 24 кадр/сАудио 1: русский, DTS, 1152 kbps, 6 ch, 48 kHz [Дублированный, Blu-ray]Аудио 2: русский, AC3, 448 kbps, 6 ch, 48 kHz [Авторский, Денис Строев]Аудио 3: английский, DTS, 1509 kbps, 6 ch, 48 kHz [Оригинал]Видео: Идентификатор : 1 Формат : AVC Формат/Информация : Advanced Video Codec Профиль формата : [email protected] Параметр CABAC формата : Да Параметр ReFrames формата : 4 кадра Идентификатор кодека : V_MPEG4/ISO/AVC Продолжительность : 1 ч. 47 м. Битрейт : 14,0 Мбит/сек Ширина : 1920 пикселей Высота : 1080 пикселей Соотношение сторон : 16:9 Режим частоты кадров : Постоянный Частота кадров : 24,000 кадра/сек Цветовое пространство : YUV Субдискретизация насыщенности : 4:2:0 Битовая глубина : 8 бит Тип развёртки : Прогрессивная Бит/(Пиксели*Кадры) : 0.282 Размер потока : 10,6 Гбайт (84%) Заголовок : BDRip -- STarankov Библиотека кодирования : x264 core 142 r2431 ac76440 Настройки программы : cabac=1 / ref=4 / deblock=1:-1:-1 / analyse=0x3:0x113 / me=umh / subme=10 / psy=1 / psy_rd=1.00:0.15 / mixed_ref=1 / me_range=32 / chroma_me=1 / trellis=2 / 8x8dct=1 / cqm=0 / deadzone=21,11 / fast_pskip=0 / chroma_qp_offset=-3 / threads=6 / lookahead_threads=1 / sliced_threads=0 / nr=0 / decimate=1 / interlaced=0 / bluray_compat=0 / constrained_intra=0 / bframes=8 / b_pyramid=2 / b_adapt=2 / b_bias=0 / direct=1 / weightb=1 / open_gop=0 / weightp=2 / keyint=230 / keyint_min=23 / scenecut=40 / intra_refresh=0 / rc_lookahead=40 / rc=crf / mbtree=0 / crf=17.8 / qcomp=0.60 / qpmin=0 / qpmax=69 / qpstep=4 / vbv_maxrate=40000 / vbv_bufsize=50000 / crf_max=0.0 / nal_hrd=none / filler=0 / ip_ratio=1.40 / pb_ratio=1.30 / aq=1:1.00 Язык : English Default : Да Forced : НетАудио #1: Идентификатор : 2 Формат : DTS Формат/Информация : Digital Theater Systems Режим : 16 Параметр Endianness формата : Big Идентификатор кодека : A_DTS Продолжительность : 1 ч. 47 м. Вид битрейта : Постоянный Битрейт : 1152 Кбит/сек Каналы : 6 каналов Расположение каналов : Front: L C R, Side: L R, LFE Частота : 48,0 КГц Битовая глубина : 16 бит Метод сжатия : С потерями Размер потока : 889 Мбайт (7%) Заголовок : DUB (Blu-ray) Язык : Russian Default : Да Forced : НетАудио #2: Идентификатор : 3 Формат : AC-3 Формат/Информация : Audio Coding 3 Расширение режима : CM (complete main) Параметр Endianness формата : Big Идентификатор кодека : A_AC3 Продолжительность : 1 ч. 47 м. Вид битрейта : Постоянный Битрейт : 448 Кбит/сек Каналы : 6 каналов Расположение каналов : Front: L C R, Side: L R, LFE Частота : 48,0 КГц Битовая глубина : 16 бит Метод сжатия : С потерями Размер потока : 346 Мбайт (3%) Заголовок : AVO (Денис Строев) Язык : Russian Default : Нет Forced : НетАудио #3: Идентификатор : 4 Формат : DTS Формат/Информация : Digital Theater Systems Режим : 16 Параметр Endianness формата : Big Идентификатор кодека : A_DTS Продолжительность : 1 ч. 47 м. Вид битрейта : Постоянный Битрейт : 768 Кбит/сек Каналы : 6 каналов Расположение каналов : Front: L C R, Side: L R, LFE Частота : 48,0 КГц Битовая глубина : 24 бит Метод сжатия : С потерями Размер потока : 593 Мбайт (5%) Заголовок : Original Язык : English Default : Нет Forced : Нет 12,61 Gb 22 2
13 января 2016 07:43 Я плюю на ваши могилы / I Spit on Your Grave (2010) BDRip 720p by msltel | D, A | Расширенная версия, Open Matte .torrent   [Информация о файле (нажмите для просмотра)] Качество: BDRip 720pВидео: MPEG-4 AVC, 5487 kбит/с, 1280x720, 24 кадр/сАудио: Русский, английский (AC3, 6 ch, 448 Кбит/с)Перевод: Дублированный (Blu-ray), авторский (Денис Строев)Субтитры: Русские, английскиеВидео: Идентификатор : 1 Формат : AVC Формат/Информация : Advanced Video Codec Профиль формата : [email protected] Параметр CABAC формата : Да Параметр ReFrames формата : 9 кадров Идентификатор кодека : V_MPEG4/ISO/AVC Продолжительность : 1 ч. 47 м. Битрейт : 5487 Кбит/сек Ширина : 1280 пикселей Высота : 720 пикселей Соотношение сторон : 16:9 Режим частоты кадров : Постоянный Частота кадров : 24,000 кадра/сек Цветовое пространство : YUV Субдискретизация насыщенности : 4:2:0 Битовая глубина : 8 бит Тип развёртки : Прогрессивная Бит/(Пиксели*Кадры) : 0.248 Размер потока : 4,14 Гбайт (79%) Заголовок : BDRip -- STarankov Библиотека кодирования : x264 core 142 r2431 ac76440 Настройки программы : cabac=1 / ref=9 / deblock=1:-1:-1 / analyse=0x3:0x113 / me=umh / subme=10 / psy=1 / psy_rd=1.00:0.15 / mixed_ref=1 / me_range=32 / chroma_me=1 / trellis=2 / 8x8dct=1 / cqm=0 / deadzone=21,11 / fast_pskip=0 / chroma_qp_offset=-3 / threads=6 / lookahead_threads=1 / sliced_threads=0 / nr=0 / decimate=1 / interlaced=0 / bluray_compat=0 / constrained_intra=0 / bframes=8 / b_pyramid=2 / b_adapt=2 / b_bias=0 / direct=1 / weightb=1 / open_gop=0 / weightp=2 / keyint=230 / keyint_min=23 / scenecut=40 / intra_refresh=0 / rc_lookahead=40 / rc=crf / mbtree=0 / crf=17.0 / qcomp=0.60 / qpmin=0 / qpmax=69 / qpstep=4 / vbv_maxrate=40000 / vbv_bufsize=50000 / crf_max=0.0 / nal_hrd=none / filler=0 / ip_ratio=1.40 / pb_ratio=1.30 / aq=1:1.00 Язык : English Default : Да Forced : НетАудио #1: Идентификатор : 2 Формат : AC-3 Формат/Информация : Audio Coding 3 Расширение режима : CM (complete main) Параметр Endianness формата : Big Идентификатор кодека : A_AC3 Продолжительность : 1 ч. 47 м. Вид битрейта : Постоянный Битрейт : 448 Кбит/сек Каналы : 6 каналов Расположение каналов : Front: L C R, Side: L R, LFE Частота : 48,0 КГц Битовая глубина : 16 бит Метод сжатия : С потерями Размер потока : 346 Мбайт (6%) Заголовок : DUB (Blu-ray) Язык : Russian Default : Да Forced : НетАудио #2: Идентификатор : 3 Формат : AC-3 Формат/Информация : Audio Coding 3 Расширение режима : CM (complete main) Параметр Endianness формата : Big Идентификатор кодека : A_AC3 Продолжительность : 1 ч. 47 м. Вид битрейта : Постоянный Битрейт : 448 Кбит/сек Каналы : 6 каналов Расположение каналов : Front: L C R, Side: L R, LFE Частота : 48,0 КГц Битовая глубина : 16 бит Метод сжатия : С потерями Размер потока : 346 Мбайт (6%) Заголовок : VO (Денис Строев, любительский) Язык : Russian Default : Нет Forced : НетАудио #3: Идентификатор : 4 Формат : AC-3 Формат/Информация : Audio Coding 3 Расширение режима : CM (complete main) Параметр Endianness формата : Big Идентификатор кодека : A_AC3 Продолжительность : 1 ч. 47 м. Вид битрейта : Постоянный Битрейт : 448 Кбит/сек Каналы : 6 каналов Расположение каналов : Front: L C R, Side: L R, LFE Частота : 48,0 КГц Битовая глубина : 16 бит Метод сжатия : С потерями Размер потока : 346 Мбайт (6%) Заголовок : Original Язык : English Default : Нет Forced : Нет 5,25 Gb 20 4
13 января 2016 07:43 Я плюю на ваши могилы / I Spit on Your Grave (2010) HDRip от Deadmauvlad | D | Лицензия | Расширенная версия | Open Matte .torrent   [Информация о файле (нажмите для просмотра)] Видео: 720x400 (1.80:1), 23.976 fps, XviD build 73 ~1475 kbps avg, 0.21 bit/pixelАудио: 48 kHz, AC3 Dolby Digital, 3/2 (L,C,R,l,r) + LFE ch, ~448 kbps 1,46 Gb 129 15
13 января 2016 07:43 Я плюю на ваши могилы / I Spit on Your Grave (2010) HDRip от Deadmauvlad | Расширенная версия | D | Open Matte .torrent   [Информация о файле (нажмите для просмотра)] Перевод: Профессиональный (полное дублирование) (Мосфильм Мастер)Субтитры: ОтсутствуютКачество: HDRipФормат: AVIВидео: 624x336 (1.86:1), 24.000 fps, XviD build 73 ~832 kbps avg, 0.17 bit/pixel 748,81 Mb 63 4
13 января 2016 07:43 Я плюю на ваши могилы / I Spit on Your Grave (2010) BDRip 720p от NovaLan | Unrated Cut / Расширенная версия .torrent   [Информация о файле (нажмите для просмотра)] Перевод: Дублированный / Авторский одноголосый (Д.Строев)Кодек: H.264Качество: BDRip 720pВидео: MPEG-4 AVC, 5364 Мбит/с, 1280x720, 24.000 кадр/сЗвук: Русский (DTS, 6 ch, 1152 Кбит/с), (AC3, 6 ch, 448 Кбит/с), английский (DTS, 6 ch, 755 Кбит/с)Субтитры: Русские, английскиеВидео: Идентификатор : 1 Формат : AVC Формат/Информация : Advanced Video Codec Профиль формата : [email protected] Параметр CABAC формата : Да Параметр ReFrames формата : 8 кадров Идентификатор кодека : V_MPEG4/ISO/AVC Продолжительность : 1 ч. 47 м. Битрейт : 5364 Кбит/сек Ширина : 1280 пикселей Высота : 720 пикселей Соотношение сторон : 16:9 Частота кадров : 24,000 кадра/сек Цветовое пространство : YUV Субдискретизация насыщенности : 4:2:0 Битовая глубина : 8 бит Тип развёртки : Прогрессивная Бит/(Пиксели*Кадры) : 0.243 Размер потока : 3,94 Гбайт (68%) Заголовок : Sergei7721 Библиотека кодирования : x264 core 133 r2334 a3ac64b Настройки программы : cabac=1 / ref=8 / deblock=1:-1:-1 / analyse=0x3:0x113 / me=umh / subme=10 / psy=1 / psy_rd=1.00:0.20 / mixed_ref=1 / me_range=32 / chroma_me=1 / trellis=2 / 8x8dct=1 / cqm=0 / deadzone=21,11 / fast_pskip=0 / chroma_qp_offset=-3 / threads=12 / lookahead_threads=1 / sliced_threads=0 / nr=0 / decimate=0 / interlaced=0 / bluray_compat=0 / constrained_intra=0 / bframes=6 / b_pyramid=2 / b_adapt=2 / b_bias=0 / direct=3 / weightb=1 / open_gop=0 / weightp=2 / keyint=240 / keyint_min=24 / scenecut=40 / intra_refresh=0 / rc_lookahead=40 / rc=2pass / mbtree=0 / bitrate=5364 / ratetol=1.0 / qcomp=0.60 / qpmin=0 / qpmax=69 / qpstep=4 / cplxblur=20.0 / qblur=0.5 / vbv_maxrate=50000 / vbv_bufsize=62500 / nal_hrd=none / ip_ratio=1.40 / pb_ratio=1.30 / aq=1:1.00 Язык : English Default : Да Forced : НетАудио #1: Идентификатор : 2 Формат : DTS Формат/Информация : Digital Theater Systems Идентификатор кодека : A_DTS Продолжительность : 1 ч. 47 м. Вид битрейта : Постоянный Битрейт : 1152 Кбит/сек Каналы : 6 каналов Расположение каналов : Front: L C R, Side: L R, LFE Частота : 48,0 КГц Битовая глубина : 16 бит Метод сжатия : С потерями Размер потока : 889 Мбайт (15%) Язык : Russian Default : Да Forced : НетАудио #2: Идентификатор : 3 Формат : DTS Формат/Информация : Digital Theater Systems Идентификатор кодека : A_DTS Продолжительность : 1 ч. 47 м. Вид битрейта : Постоянный Битрейт : 755 Кбит/сек Каналы : 6 каналов Расположение каналов : Front: L C R, Side: L R, LFE Частота : 48,0 КГц Битовая глубина : 24 бит Метод сжатия : С потерями Размер потока : 582 Мбайт (10%) Язык : English Default : Нет Forced : НетАудио #3: Идентификатор : 4 Формат : AC-3 Формат/Информация : Audio Coding 3 Расширение режима : CM (complete main) Параметр Endianness формата : Big Идентификатор кодека : A_AC3 Продолжительность : 1 ч. 47 м. Вид битрейта : Постоянный Битрейт : 448 Кбит/сек Каналы : 6 каналов Расположение каналов : Front: L C R, Side: L R, LFE Частота : 48,0 КГц Битовая глубина : 16 бит Метод сжатия : С потерями Размер потока : 346 Мбайт (6%) Язык : Russian Default : Нет Forced : Нет 5,83 Gb 18 5
13 января 2016 07:43 Я плюю на ваши могилы / I Spit on Your Grave (2010) HDRip от Scarabey | Расширенная версия .torrent   [Информация о файле (нажмите для просмотра)] Перевод: Профессиональный (дублированный)Видео: 720x304 (2.37:1), 23.976 fps, XviD build 73 ~1459 kbps avg, 0.28 bit/pixelАудио: 48 kHz, AC3 Dolby Digital, 3/2 (L,C,R,l,r) + LFE ch, ~448 kbps 1,45 Gb 835 24
13 января 2016 07:43 Я плюю на ваши могилы / I Spit on Your Grave (2010) HDRip от Scarabey | Расширенная версия .torrent   [Информация о файле (нажмите для просмотра)] Перевод: Профессиональный (дублированный)Видео: 688x288 (2.39:1), 23.976 fps, XviD build 73 ~825 kbps avg, 0.17 bit/pixelАудио: 48 kHz, MPEG Layer 3, 2 ch, ~128.00 kbps avg 745,57 Mb 127 8
13 января 2016 07:43 Я плюю на ваши могилы / I Spit on Your Grave (2010) HDRip-AVC | Расширенная версия .torrent   [Информация о файле (нажмите для просмотра)] Перевод: Профессиональный (полное дублирование) + ОригиналКодек: H.264Качество: HDRip-AVCВидео: 724x308 (2.35:1), 23.976 fps, H.264 ~839 kbps, 0.157 b/pЗвук: Аудио #1 (DUB): AАС-НЕ, 48000Hz, 2 channels (L+R), ~60 Kbps Аудио #2 (ENG): AАС-НЕ, 48000Hz, 2 channels (L+R), ~60 KbpsСубтитры: Русские, английские (*.srt) 744,23 Mb 43 2
13 января 2016 07:42 Я плюю на ваши могилы / I Spit on Your Grave (2010) DVD-9 от New-Team | Полная версия / UNRATED .torrent   [Информация о файле (нажмите для просмотра)] Перевод: Профессиональный дублированныйКодек: MPEG2Качество: DVD9Видео: MPEG2, 720*576 (16:9), 25,000 fps, ~6955 kbps avg, 0.668 bit/pixelЗвук: 48 kHz, AC3 Dolby Digital, 2 (L,R) ch, ~192 kbps avg - Русская 48 kHz, AC3 Dolby Digital, 3/2 (L,C,R,l,r) + LFE ch, ~384 kbps avg - Русская 48 kHz, AC3 Dolby Digital, 3/2 (L,C,R,l,r) + LFE ch, ~384 kbps avg - EnglishСубтитры: Русские prerendered (IDX+SUB) 6,93 Gb 5 4
13 января 2016 07:42 Я плюю на ваши могилы / I Spit on Your Grave (2010) HDRip | КПК от Generalfilm .torrent   [Информация о файле (нажмите для просмотра)] Качество: HDRip | КПКВидео: кодеккодек: x264,формат: mp4,размер кадра: 320x128, битрейт: 250 кб/сАудио: языкрусский, перевод: дублированный (дубляж), 275,58 Mb 7 3
13 января 2016 07:42 Я плюю на ваши могилы / I Spit on Your Grave (2010) BDRip от HELLYWOOD | Unrated Cut .torrent   [Информация о файле (нажмите для просмотра)] Перевод: Профессиональный (Дублированный)|Лицензия| + Оригинал Субтитры: Русские, АнглийскиеФормат: AVIКачество: BDRip (источник: BlueBird /Blu-Ray Disc/ 1080p) Видео: 720x304 (2.37:1), 23.976 fps, XviD build 65 ~1985 kbps avg, 0.38 bit/pixelАудио #1: 48 kHz, AC3 Dolby Digital, 3/2 (L,C,R,l,r) + LFE ch, ~448 kbps|DUB|Аудио #2: 48 kHz, AC3 Dolby Digital, 3/2 (L,C,R,l,r) + LFE ch, ~448 kbps|ENG| 2,18 Gb 677 11
13 января 2016 07:42 Я плюю на ваши могилы / I Spit on Your Grave (2010) BDRip-AVC от HQ-ViDEO | UNRATED .torrent   [Информация о файле (нажмите для просмотра)] Перевод: Русский дублированный + Оригинальная дорожка (Английская)Субтитры: Русские, АнглийскиеВидео: H.264 / 1016 x 432 / 2.35:1 / 1990 kbps / 23,976 fpsАудио 1: Русский / AC3 Dolby Digital / 48 KHz / 448 kbps / 3/2 (L,C,R,l,r) + LFE chАудио 2: Английский / AC3 Dolby Digital / 48 KHz / 448 kbps / 3/2 (L,C,R,l,r) + LFE ch 2,18 Gb 18 4
13 января 2016 07:42 Я плюю на ваши могилы / I Spit on Your Grave (2010) BDRip от HQ-ViDEO | UNRATED .torrent   [Информация о файле (нажмите для просмотра)] Перевод: Русский дублированный + Оригинальная дорожка (Английская)Субтитры: Русские, АнглийскиеВидео: XviD / 720 x 304 / 2.37:1 / 1976 kbps / 23,976 fpsАудио 1: Русский / AC3 Dolby Digital / 48 KHz / 448 kbps / 3/2 (L,C,R,l,r) + LFE chАудио 2: Английский / AC3 Dolby Digital / 48 KHz / 448 kbps / 3/2 (L,C,R,l,r) + LFE ch 2,18 Gb 43 4
13 января 2016 07:42 Я плюю на ваши могилы / I Spit on Your Grave (2010) BDRip 1080p Rip by Neofilm .torrent   [Информация о файле (нажмите для просмотра)] Перевод: ДублированныйКодек: x.264Качество: BDRip 1080pВидео: 7500 kb/s, 1920x800, 24 fpsЗвук: AC3, 448 kb/s (6Ch)-Дублированный DTS-HD MA, 1540 kb/s (6Ch)-Оригинал DTS-HD MA, 1931 Kb/s (6Ch)-ДублированныйСубтитры: Русские 7,33 Gb 36 9
13 января 2016 07:42 Я плюю на ваши могилы / I Spit on Your Grave (2010) BDRip 1080p | Полная версия .torrent   [Информация о файле (нажмите для просмотра)] Перевод: ДублированныйКодек: x264Качество: BDRip (источник: Blu-ray Disc)Видео: 1920x800 (2,40:1), 24 fps, 5400 kbpsЗвук: 48 kHz, AC-3, 6 ch, 384 kbps 4,37 Gb 132 4
13 января 2016 07:42 Я плюю на ваши могилы / I Spit on Your Grave (2010) BDRip от HQCLUB .torrent   [Информация о файле (нажмите для просмотра)] Перевод: Профессиональный (полное дублирование) + ОригиналСубтитры: Русские, английские SDH (внешние *.srt)Формат: AVIКачество: BDRip (источник:Видео: 720x304 (2.37:1), 23.976 fps, XviD build 57 ~2111 kbps avg, 0.40 bit/pixelАудио #1: 48 kHz, AC3 Dolby Digital, 3/2 (L,C,R,l,r) + LFE ch, ~384.00 kbps avgАудио #2: 48 kHz, AC3 Dolby Digital, 3/2 (L,C,R,l,r) + LFE ch, ~384.00 kbps avg 2,18 Gb 29 4
13 января 2016 07:42 Я плюю на ваши могилы / I Spit on Your Grave (2010) HDRip | Полная версия / UNRATED .torrent   [Информация о файле (нажмите для просмотра)] Формат: AVI (XviD)Качество: HDRip [Рип с BDRip 1080p]Видео: 1416 kb/s, 720x304Аудио: Russian: AC3, 384 kb/s (6 ch) 1,37 Gb 245 7
13 января 2016 07:42 Я плюю на ваши могилы / I Spit on Your Grave (2010) BDRip 720p | Полная версия / UNRATED .torrent   [Информация о файле (нажмите для просмотра)] Формат: MKV (H.264)Качество: BDRipВидео: 5143 kb/s, 1280x544Аудио: Russian: AC3, 384 kb/s (6 ch) / English: AC3, 640 kb/s (6 ch)Субтитры: Russian, English 4,66 Gb 13 1

Скачать торрент Я плюю на ваши могилы: Трилогия / I Spit on Your Grave: Trilogy (2010-2015) BDRip 720p

krutor.org

Я плюю на ваши могилы / I Spit on Your Grave / 2010

Я плюю на ваши могилы / I Spit on Your Grave

Страна: США Производство: Family of the Year Productions, Cinetel Films, Anchor Bay FilmsГод выпуска: 2010Жанр: ужасы, триллер, криминалПродолжительность: 01:47:56

Режиссер: Стивен Р. МонроАвторы сценария: Адам Рокофф, Мейр Зарки

В ролях: Сара Батлер, Джефф Брэнсон, Эндрю Ховард, Дэниел Фрэнзиси, Родни Истман, Чэд Линдберг, Трейси Уолтер, Молли Миллиган

Описание: Молодая писательница Дженнифер снимает домик в глухом лесу, чтобы в уединении написать роман. Но издатель не дождется нового бестселлера… Четверо местных отморозков жестоко насилуют девушку и обрекают ее на мучительную смерть. Но Дженнифер сумела выжить и теперь ее единственная цель — месть. И месть эта будет столь ужасной, что бывшие насильники проклянут тот день, когда встретили ее впервые…

Перевод: Профессиональный (полное дублирование) + Авторский | Денис СтроевСубтитры: русские, английские

Качество: BDRip 720pФормат: МКVВидео кодек: AVCАудио кодек: АС3Видео: 1280x720 (16:9), 24.000 fps, MPEG-4 AVC ~4 520 kbps avg, 0.204 bit/pixelАудио №1: 48.0 kHz, AC3 Dolby Digital, 3/2 (L,C,R,l,r) + LFE ch, ~640 kbps | DUBАудио №2: 48.0 kHz, AC3 Dolby Digital, 3/2 (L,C,R,l,r) + LFE ch, ~448 kbps | AVOАудио №3: 48.0 kHz, AC3 Dolby Digital, 3/2 (L,C,R,l,r) + LFE ch, ~640 kbps | ENGФормат субтитров: UTF-8 Plain Text

Дата премьеры (мир): 1 мая 2010релиз на DVD, Blu-Ray: 16 февраля 2011, «Кармен Видео»

Media Info 1

Общее Уникальный идентификатор : 185313042886456703677541485860955220724 (0x8B69FE6C2BB4BE6F98D13E47C5F5EAF4) Полное имя : Ya.Pluyu.Na.Vashy.Mogily.2010.ITA-Tr.2xRus.Eng.BDRip.720p.-HELLYWOOD.mkv Формат : Matroska Версия формата : Version 4 / Version 2 Размер файла : 4,71 Гбайт Длительность : 1 ч. 47 м. Общий поток : 6250 Кбит/сек Название фильма : I Spit on Your Grave (2010) Дата кодирования : UTC 2016-05-18 05:46:41 Программа кодирования : mkvmerge v5.9.0 ('On The Loose') built on Dec 15 2012 16:39:58 Библиотека кодирования : libebml v1.3.0 + libmatroska v1.4.0

Видео Идентификатор : 1 Формат : AVC Формат/Информация : Advanced Video Кодек Профиль формата : [email protected] Параметр CABAC формата : Да Параметр ReFrames формата : 9 кадров Идентификатор кодека : V_MPEG4/ISO/AVC Длительность : 1 ч. 47 м. Битрейт : 4520 Кбит/сек Ширина : 1280 пикселей Высота : 720 пикселей Соотношение сторон : 16:9 Режим частоты кадров : Постоянный Частота кадров : 24,000 кадра/сек Цветовое пространство : YUV Субдискретизация насыщенности : 4:2:0 Битовая глубина : 8 бит Тип развёртки : Прогрессивная Бит/(Пиксели*Кадры) : 0.204 Размер потока : 3,32 Гбайт (70%) Заголовок : potroks Библиотека кодирования : x264 core 130 r2273 b3065e6 Настройки программы : cabac=1 / ref=9 / deblock=1:-2:-2 / analyse=0x3:0x133 / me=umh / subme=11 / psy=1 / psy_rd=1.00:0.03 / mixed_ref=1 / me_range=48 / chroma_me=1 / trellis=2 / 8x8dct=1 / cqm=0 / deadzone=21,11 / fast_pskip=0 / chroma_qp_offset=-3 / threads=9 / lookahead_threads=8 / sliced_threads=0 / nr=0 / decimate=0 / interlaced=0 / bluray_compat=0 / constrained_intra=0 / bframes=11 / b_pyramid=2 / b_adapt=2 / b_bias=0 / direct=3 / weightb=1 / open_gop=0 / weightp=2 / keyint=250 / keyint_min=23 / scenecut=40 / intra_refresh=0 / rc_lookahead=60 / rc=2pass / mbtree=0 / bitrate=4520 / ratetol=1.0 / qcomp=0.70 / qpmin=0 / qpmax=69 / qpstep=4 / cplxblur=20.0 / qblur=0.5 / vbv_maxrate=50000 / vbv_bufsize=62500 / nal_hrd=none / ip_ratio=1.35 / pb_ratio=1.25 / aq=1:0.70 Язык : English Default : Да Forced : Нет

Аудио #1 Идентификатор : 2 Формат : AC-3 Формат/Информация : Audio Coding 3 Расширение режима : CM (complete main) Параметр Endianness формата : Big Идентификатор кодека : A_AC3 Длительность : 1 ч. 47 м. Вид битрейта : Постоянный Битрейт : 640 Кбит/сек Каналы : 6 каналов Расположение каналов : Front: L C R, Side: L R, LFE Частота : 48,0 КГц Частота кадров : 31,250 кадров/сек (1536 spf) Метод сжатия : С потерями Размер потока : 494 Мбайт (10%) Заголовок : Dub | DD 5.1 @ 640 kbps - Blu-Ray RUS Язык : Russian Default : Да Forced : Нет

Аудио #2 Идентификатор : 3 Формат : AC-3 Формат/Информация : Audio Coding 3 Расширение режима : CM (complete main) Параметр Endianness формата : Big Идентификатор кодека : A_AC3 Длительность : 1 ч. 47 м. Вид битрейта : Постоянный Битрейт : 448 Кбит/сек Каналы : 6 каналов Расположение каналов : Front: L C R, Side: L R, LFE Частота : 48,0 КГц Частота кадров : 31,250 кадров/сек (1536 spf) Метод сжатия : С потерями Размер потока : 346 Мбайт (7%) Заголовок : AVO | DD 5.1 @ 448 kbps - D.Stroev [de}{ter] Язык : Russian Default : Нет Forced : Нет

Аудио #3 Идентификатор : 4 Формат : AC-3 Формат/Информация : Audio Coding 3 Расширение режима : CM (complete main) Параметр Endianness формата : Big Идентификатор кодека : A_AC3 Длительность : 1 ч. 47 м. Вид битрейта : Постоянный Битрейт : 640 Кбит/сек Каналы : 6 каналов Расположение каналов : Front: L C R, Side: L R, LFE Частота : 48,0 КГц Частота кадров : 31,250 кадров/сек (1536 spf) Метод сжатия : С потерями Размер потока : 494 Мбайт (10%) Заголовок : Original | DD 5.1 @ 640 kbps Язык : English Default : Нет Forced : Нет

Текст #1 Идентификатор : 5 Формат : UTF-8 Идентификатор кодека : S_TEXT/UTF8 Идентификатор кодека/Информация : UTF-8 Plain Text Язык : Russian Default : Нет Forced : Нет

Текст #2 Идентификатор : 6 Формат : UTF-8 Идентификатор кодека : S_TEXT/UTF8 Идентификатор кодека/Информация : UTF-8 Plain Text Язык : English Default : Нет Forced : Нет

Меню 00:00:00.000 : en:(01)00:00:00:000 00:10:14.416 : en:(02)00:10:14:416 00:18:23.166 : en:(03)00:18:23:166 00:33:16.208 : en:(04)00:33:16:208 00:49:36.416 : en:(05)00:49:36:416 01:04:32.166 : en:(06)01:04:32:166 01:17:10.041 : en:(07)01:17:10:041 01:35:47.750 : en:(08)01:35:47:750

Я плюю на ваши могилы 2 / I Spit on Your Grave 2 / 2013

Я плюю на ваши могилы 2 / I Spit on Your Grave 2

Страна: США Производство: Cinetel FilmsГод выпуска: 2013Жанр: ужасы, триллер, криминалПродолжительность: 01:46:19

Режиссер: Стивен Р. МонроАвторы сценария: Нил Элман, Томас Х. Фентон

В ролях: Джемма Даллендер, Джо Эбсолом, Явор Бахаров, Георг Златарев, Мэри Стокли, Валентин Пелка, Александр Алексеев, Питер Сильверлиф

Описание: Красавица Кэти только что переехала в Нью-Йорк, чтобы сделать карьеру модели. Но девичьи мечты о роскошной жизни разбиваются: ее насилуют, пытают, а вскоре похищают и увозят в непонятном направлении. Кэти оказывается одна в чужой стране, где ее почти что похоронят заживо. Чудом избежав смерти, девушка решает жестоко отомстить обидчикам…

Перевод: Профессиональный (многоголосый) | R5 + Любительский (многоголосый) | BaibaKo + Любительский (одноголосый) | den904Субтитры: русские (R5 + от krylatkin), украинские, английские (Full + SDH + SDH-Colored)

Качество: BDRip 720pФормат: МКVВидео кодек: AVCАудио кодек: АС3Видео: 1280x534 (2.40:1), 23.976 fps, MPEG-4 AVC ~3 969 kbps avg, 0.242 bit/pixelАудио №1: 48.0 kHz, AC3 Dolby Digital, 3/2 (L,C,R,l,r) + LFE ch, ~384 kbps | MVOАудио №2: 48.0 kHz, AC3 Dolby Digital, 3/2 (L,C,R,l,r) + LFE ch, ~384 kbps | BaibaKoАудио №3: 48.0 kHz, AC3 Dolby Digital, 2/0 (L,R) ch, ~192.00 kbps | den904Аудио №4: 48.0 kHz, AC3 Dolby Digital, 3/2 (L,C,R,l,r) + LFE ch, ~640 kbps | ENGФормат субтитров: UTF-8 Plain Text

Дата премьеры (мир): 25 августа 2013релиз на DVD: 23 октября 2013, «Кармен Видео»релиз на Blu-Ray: 13 ноября 2013, «Кармен Видео»

Media Info 2

Общее Уникальный идентификатор : 245968613176308159275195884291468091838 (0xB90BD4ED8A1D4C1D9002FE6C33D4E1BE) Полное имя : Ya.Pluyu.Na.Vashy.Mogily.2.2013.UC.3xRus.Eng.BDRip.720p.-HELLYWOOD.mkv Формат : Matroska Версия формата : Version 4 / Version 2 Размер файла : 4,13 Гбайт Длительность : 1 ч. 46 м. Общий поток : 5565 Кбит/сек Название фильма : I Spit On Your Grave 2 [UNRATED] (2013) Дата кодирования : UTC 2016-05-18 11:36:27 Программа кодирования : mkvmerge v5.9.0 ('On The Loose') built on Dec 15 2012 16:39:58 Библиотека кодирования : libebml v1.3.0 + libmatroska v1.4.0

Видео Идентификатор : 1 Формат : AVC Формат/Информация : Advanced Video Кодек Профиль формата : [email protected] Параметр CABAC формата : Да Параметр ReFrames формата : 9 кадров Идентификатор кодека : V_MPEG4/ISO/AVC Длительность : 1 ч. 46 м. Битрейт : 3969 Кбит/сек Ширина : 1280 пикселей Высота : 534 пикселя Соотношение сторон : 2,40:1 Режим частоты кадров : Постоянный Частота кадров : 23,976 кадра/сек Цветовое пространство : YUV Субдискретизация насыщенности : 4:2:0 Битовая глубина : 8 бит Тип развёртки : Прогрессивная Бит/(Пиксели*Кадры) : 0.242 Размер потока : 2,86 Гбайт (69%) Заголовок : potroks Библиотека кодирования : x264 core 130 r2273 b3065e6 Настройки программы : cabac=1 / ref=9 / deblock=1:-2:-2 / analyse=0x3:0x133 / me=umh / subme=11 / psy=1 / psy_rd=1.02:0.05 / mixed_ref=1 / me_range=48 / chroma_me=1 / trellis=2 / 8x8dct=1 / cqm=0 / deadzone=21,11 / fast_pskip=0 / chroma_qp_offset=-3 / threads=9 / lookahead_threads=8 / sliced_threads=0 / nr=0 / decimate=0 / interlaced=0 / bluray_compat=0 / constrained_intra=0 / bframes=11 / b_pyramid=2 / b_adapt=2 / b_bias=0 / direct=3 / weightb=1 / open_gop=0 / weightp=2 / keyint=250 / keyint_min=23 / scenecut=40 / intra_refresh=0 / rc_lookahead=60 / rc=2pass / mbtree=0 / bitrate=3969 / ratetol=1.0 / qcomp=0.70 / qpmin=0 / qpmax=69 / qpstep=4 / cplxblur=20.0 / qblur=0.5 / vbv_maxrate=50000 / vbv_bufsize=62500 / nal_hrd=none / ip_ratio=1.35 / pb_ratio=1.25 / aq=1:0.70 Язык : English Default : Да Forced : Нет

Аудио #1 Идентификатор : 2 Формат : AC-3 Формат/Информация : Audio Coding 3 Расширение режима : CM (complete main) Параметр Endianness формата : Big Идентификатор кодека : A_AC3 Длительность : 1 ч. 46 м. Вид битрейта : Постоянный Битрейт : 384 Кбит/сек Каналы : 6 каналов Расположение каналов : Front: L C R, Side: L R, LFE Частота : 48,0 КГц Частота кадров : 31,250 кадров/сек (1536 spf) Метод сжатия : С потерями Размер потока : 292 Мбайт (7%) Заголовок : MVO | DD 5.1 @ 384 kbps - R5 Язык : Russian Default : Да Forced : Нет

Аудио #2 Идентификатор : 3 Формат : AC-3 Формат/Информация : Audio Coding 3 Расширение режима : CM (complete main) Параметр Endianness формата : Big Идентификатор кодека : A_AC3 Длительность : 1 ч. 46 м. Вид битрейта : Постоянный Битрейт : 384 Кбит/сек Каналы : 6 каналов Расположение каналов : Front: L C R, Side: L R, LFE Частота : 48,0 КГц Частота кадров : 31,250 кадров/сек (1536 spf) Метод сжатия : С потерями Размер потока : 292 Мбайт (7%) Заголовок : MVO | DD 5.1 @ 384 kbps - BaibaKo Язык : Russian Default : Нет Forced : Нет

Аудио #3 Идентификатор : 4 Формат : AC-3 Формат/Информация : Audio Coding 3 Расширение режима : CM (complete main) Параметр Endianness формата : Big Идентификатор кодека : A_AC3 Длительность : 1 ч. 46 м. Вид битрейта : Постоянный Битрейт : 192 Кбит/сек Каналы : 2 канала Расположение каналов : Front: L R Частота : 48,0 КГц Частота кадров : 31,250 кадров/сек (1536 spf) Метод сжатия : С потерями Размер потока : 146 Мбайт (3%) Заголовок : VO | DD 2.0 @ 192 kbps - den904 Язык : Russian Default : Нет Forced : Нет

Аудио #4 Идентификатор : 5 Формат : AC-3 Формат/Информация : Audio Coding 3 Расширение режима : CM (complete main) Параметр Endianness формата : Big Идентификатор кодека : A_AC3 Длительность : 1 ч. 46 м. Вид битрейта : Постоянный Битрейт : 640 Кбит/сек Каналы : 6 каналов Расположение каналов : Front: L C R, Side: L R, LFE Частота : 48,0 КГц Частота кадров : 31,250 кадров/сек (1536 spf) Метод сжатия : С потерями Размер потока : 487 Мбайт (12%) Заголовок : Original | DD 5.1 @ 640 kbps Язык : English Default : Нет Forced : Нет

Текст #1 Идентификатор : 6 Формат : UTF-8 Идентификатор кодека : S_TEXT/UTF8 Идентификатор кодека/Информация : UTF-8 Plain Text Заголовок : R5 Язык : Russian Default : Нет Forced : Нет

Текст #2 Идентификатор : 7 Формат : UTF-8 Идентификатор кодека : S_TEXT/UTF8 Идентификатор кодека/Информация : UTF-8 Plain Text Заголовок : krylatkin Язык : Russian Default : Нет Forced : Нет

Текст #3 Идентификатор : 8 Формат : UTF-8 Идентификатор кодека : S_TEXT/UTF8 Идентификатор кодека/Информация : UTF-8 Plain Text Заголовок : R5 Язык : Ukrainian Default : Нет Forced : Нет

Текст #4 Идентификатор : 9 Формат : UTF-8 Идентификатор кодека : S_TEXT/UTF8 Идентификатор кодека/Информация : UTF-8 Plain Text Заголовок : Full Язык : English Default : Нет Forced : Нет

Текст #5 Идентификатор : 10 Формат : UTF-8 Идентификатор кодека : S_TEXT/UTF8 Идентификатор кодека/Информация : UTF-8 Plain Text Заголовок : SDH Язык : English Default : Нет Forced : Нет

Текст #6 Идентификатор : 11 Формат : UTF-8 Идентификатор кодека : S_TEXT/UTF8 Идентификатор кодека/Информация : UTF-8 Plain Text Заголовок : SDH-Colored Язык : English Default : Нет Forced : Нет

Меню 00:00:00.000 : en:00:00:00.000 00:07:11.056 : en:00:07:11.056 00:15:08.491 : en:00:15:08.491 00:24:16.455 : en:00:24:16.455 00:36:33.108 : en:00:36:33.108 00:46:44.844 : en:00:46:44.844 00:59:19.306 : en:00:59:19.306 01:11:52.683 : en:01:11:52.683 01:17:31.981 : en:01:17:31.981 01:23:12.112 : en:01:23:12.112 01:29:12.430 : en:01:29:12.430 01:42:08.205 : en:01:42:08.205

Я плюю на ваши могилы 3 / I Spit on Your Grave 3 / 2015

Я плюю на ваши могилы 3 / I Spit on Your Grave 3

Страна: США Производство: Cinetel FilmsГод выпуска: 2015Жанр: ужасы, триллер, криминалПродолжительность: 01:31:31

Режиссер: Р.Д. БраунштейнАвтор сценария: Дэниэл Гилбой

В ролях: Сара Батлер, Дженнифер Лэндон, Даг МакКиэн, Гэбриел Хоган, Харли Джейн Козак, Мишель Херд, Расселл Чарльз Питтс, Уолтер Перес

Описание: Главная героиня фильма, писательница Дженнифер Хиллз, начала новую жизнь. Она посещает психотерапевта и кризисную группу для жертв изнасилований. В группе она знакомится с бойкой и яркой девушкой, которая убеждает её, что месть — это и есть правосудие. Вместе они запугивают мужчину, который насилует свою падчерицу-подростка из их группы. А потом подругу насилует и убивает её бывший парень. Пришло время Дженнифер встретиться со своим прошлым. Понесут ли преступники заслуженное наказание..? И по какую сторону окажется сама Дженнифер..?

Перевод: Профессиональный (многоголосый) | iTunes + Любительский (двухголосый) | Line Masters + Многоголосый (украинский)Субтитры: русские, английские (Full + SDH + SDH-Colored)

Качество: BDRip 720pФормат: МКVВидео кодек: AVCАудио кодек: АС3Видео: 1280x534 (2.40:1), 23.976 fps, MPEG-4 AVC ~5 547 kbps avg, 0.338 bit/pixelАудио №1: 48.0 kHz, AC3 Dolby Digital, 3/2 (L,C,R,l,r) + LFE ch, ~384 kbps | MVOАудио №2: 48.0 kHz, AC3 Dolby Digital, 2/0 (L,R) ch, ~384.00 kbps | Line MastersАудио №3: 48.0 kHz, AC3 Dolby Digital, 2/0 (L,R) ch, ~192.00 kbps | UKRАудио №4: 48.0 kHz, AC3 Dolby Digital, 3/2 (L,C,R,l,r) + LFE ch, ~640 kbps | ENGФормат субтитров: UTF-8 Plain Text

Дата премьеры (мир): 2 октября 2015Дата премьеры (РФ): 1 октября 2015, «All Media»

Media Info 3

Общее Уникальный идентификатор : 219496497727015255043775954559266961166 (0xA5217CDE3C84B9B28EF50F8EE11FB70E) Полное имя : Ya.Pluyu.Na.Vashy.Mogily.3.2015.2xRus.Ukr.Eng.BDRip.720p.-HELLYWOOD.mkv Формат : Matroska Версия формата : Version 4 / Version 2 Размер файла : 4,57 Гбайт Длительность : 1 ч. 31 м. Общий поток : 7146 Кбит/сек Название фильма : I Spit on Your Grave 3 (2015) Дата кодирования : UTC 2016-05-18 11:08:39 Программа кодирования : mkvmerge v5.9.0 ('On The Loose') built on Dec 15 2012 16:39:58 Библиотека кодирования : libebml v1.3.0 + libmatroska v1.4.0

Видео Идентификатор : 1 Формат : AVC Формат/Информация : Advanced Video Кодек Профиль формата : [email protected] Параметр CABAC формата : Да Параметр ReFrames формата : 8 кадров Идентификатор кодека : V_MPEG4/ISO/AVC Длительность : 1 ч. 31 м. Битрейт : 5547 Кбит/сек Ширина : 1280 пикселей Высота : 534 пикселя Соотношение сторон : 2,40:1 Режим частоты кадров : Постоянный Частота кадров : 23,976 (24000/1001) кадра/сек Цветовое пространство : YUV Субдискретизация насыщенности : 4:2:0 Битовая глубина : 8 бит Тип развёртки : Прогрессивная Бит/(Пиксели*Кадры) : 0.338 Размер потока : 3,45 Гбайт (76%) Заголовок : potroks Библиотека кодирования : x264 core 128 r2216M 198a7ea Настройки программы : cabac=1 / ref=9 / deblock=1:-3:-3 / analyse=0x3:0x133 / me=umh / subme=11 / psy=1 / psy_rd=1.00:0.05 / mixed_ref=1 / me_range=48 / chroma_me=1 / trellis=2 / 8x8dct=1 / cqm=0 / deadzone=21,11 / fast_pskip=0 / chroma_qp_offset=-3 / threads=10 / lookahead_threads=1 / sliced_threads=0 / nr=0 / decimate=1 / interlaced=0 / bluray_compat=0 / constrained_intra=0 / bframes=10 / b_pyramid=1 / b_adapt=2 / b_bias=0 / direct=3 / weightb=1 / open_gop=0 / weightp=2 / keyint=250 / keyint_min=23 / scenecut=40 / intra_refresh=0 / rc_lookahead=40 / rc=2pass / mbtree=0 / bitrate=5547 / ratetol=1.0 / qcomp=0.70 / qpmin=0 / qpmax=69 / qpstep=4 / cplxblur=20.0 / qblur=0.5 / vbv_maxrate=62500 / vbv_bufsize=62500 / nal_hrd=none / ip_ratio=1.35 / pb_ratio=1.30 / aq=1:0.75 Язык : English Default : Да Forced : Нет

Аудио #1 Идентификатор : 2 Формат : AC-3 Формат/Информация : Audio Coding 3 Расширение режима : CM (complete main) Параметр Endianness формата : Big Идентификатор кодека : A_AC3 Длительность : 1 ч. 31 м. Вид битрейта : Постоянный Битрейт : 384 Кбит/сек Каналы : 6 каналов Расположение каналов : Front: L C R, Side: L R, LFE Частота : 48,0 КГц Частота кадров : 31,250 кадров/сек (1536 spf) Метод сжатия : С потерями Размер потока : 251 Мбайт (5%) Заголовок : MVO | DD 5.1 @ 384 kbps - iTunes Язык : Russian Default : Да Forced : Нет

Аудио #2 Идентификатор : 3 Формат : AC-3 Формат/Информация : Audio Coding 3 Расширение режима : CM (complete main) Параметр Endianness формата : Big Идентификатор кодека : A_AC3 Длительность : 1 ч. 31 м. Вид битрейта : Постоянный Битрейт : 384 Кбит/сек Каналы : 2 канала Расположение каналов : Front: L R Частота : 48,0 КГц Частота кадров : 31,250 кадров/сек (1536 spf) Метод сжатия : С потерями Размер потока : 251 Мбайт (5%) Заголовок : DVO | DD 2.0 @ 384 kbps - Line Masters Язык : Russian Default : Нет Forced : Нет

Аудио #3 Идентификатор : 4 Формат : AC-3 Формат/Информация : Audio Coding 3 Расширение режима : CM (complete main) Параметр Endianness формата : Big Идентификатор кодека : A_AC3 Длительность : 1 ч. 31 м. Вид битрейта : Постоянный Битрейт : 192 Кбит/сек Каналы : 2 канала Расположение каналов : Front: L R Частота : 48,0 КГц Частота кадров : 31,250 кадров/сек (1536 spf) Метод сжатия : С потерями Размер потока : 126 Мбайт (3%) Заголовок : MVO | DD 2.0 @ 192 kbps Язык : Ukrainian Default : Нет Forced : Нет

Аудио #4 Идентификатор : 5 Формат : AC-3 Формат/Информация : Audio Coding 3 Расширение режима : CM (complete main) Параметр Endianness формата : Big Идентификатор кодека : A_AC3 Длительность : 1 ч. 31 м. Вид битрейта : Постоянный Битрейт : 640 Кбит/сек Каналы : 6 каналов Расположение каналов : Front: L C R, Side: L R, LFE Частота : 48,0 КГц Частота кадров : 31,250 кадров/сек (1536 spf) Метод сжатия : С потерями Размер потока : 419 Мбайт (9%) Заголовок : Original | DD 5.1 @ 640 kbps Язык : English Default : Нет Forced : Нет

Текст #1 Идентификатор : 6 Формат : UTF-8 Идентификатор кодека : S_TEXT/UTF8 Идентификатор кодека/Информация : UTF-8 Plain Text Язык : Russian Default : Нет Forced : Нет

Текст #2 Идентификатор : 7 Формат : UTF-8 Идентификатор кодека : S_TEXT/UTF8 Идентификатор кодека/Информация : UTF-8 Plain Text Заголовок : Full Язык : English Default : Нет Forced : Нет

Текст #3 Идентификатор : 8 Формат : UTF-8 Идентификатор кодека : S_TEXT/UTF8 Идентификатор кодека/Информация : UTF-8 Plain Text Заголовок : SDH Язык : English Default : Нет Forced : Нет

Текст #4 Идентификатор : 9 Формат : UTF-8 Идентификатор кодека : S_TEXT/UTF8 Идентификатор кодека/Информация : UTF-8 Plain Text Заголовок : SDH-Colored Язык : English Default : Нет Forced : Нет

Меню 00:00:00.000 : :(01)00:00:00:000 00:06:34.394 : :(02)00:06:34:394 00:14:42.047 : :(03)00:14:42:047 00:20:19.218 : :(04)00:20:19:218 00:28:29.541 : :(05)00:28:29:541 00:39:15.019 : :(06)00:39:15:019 00:47:19.044 : :(07)00:47:19:044 00:58:44.354 : :(08)00:58:44:354 01:08:09.752 : :(09)01:08:09:752 01:12:49.531 : :(10)01:12:49:531 01:18:53.729 : :(11)01:18:53:729 01:27:29.911 : :(12)01:27:29:911 01:31:30.485 : :(13)01:31:30:485

Релиз от:

Скачать торрент Я плюю на ваши могилы: Трилогия / I Spit on Your Grave: Trilogy (2010-2015) HDRip от KinoHitHD | КПК

krutor.org

Информация о фильмеНазвание: Я плюю на ваши могилы: ТрилогияОригинальное название: I Spit on Your Grave: TrilogyГод выхода: 2010-2015Жанр: Ужасы, триллер, криминалРежиссер постановщик: Стивен Р. Монро, Р.Д. БраунштейнВ ролях/Персоны: Сара Батлер, Джефф Брэнсон, Эндрю Ховард, Дэниел Фрэнзиси, Родни Истман, Чэд Линдберг, Трейси Уолтер, Молли Миллиган, Джемма Даллендер, Джо Эбсолом, Явор Бахаров, Георг Златарев, Мэри Стокли, Валентин Пелка, Александр Алексеев, Питер Сильверлиф

Я плюю на ваши могилы / I Spit on Your Grave (2010) HDRip от KinoHitHD | КПК | D

Информация о фильмеНазвание: Я плюю на ваши могилыОригинальное название: I Spit on Your Grave Год выхода: 2010Жанр: Ужасы, триллер, криминалРежиссер постановщик: Стивен Р. Монро В ролях/Персоны: Сара Батлер, Джефф Брэнсон, Эндрю Ховард, Дэниел Фрэнзиси, Родни Истман, Чэд Линдберг, Трейси Уолтер, Молли Миллиган

Краткое описание фильма: Молодая писательница Дженнифер снимает домик в глухом лесу, чтобы в уединении написать роман. Но издатель не дождется нового бестселлера… Четверо местных отморозков жестоко насилуют девушку и обрекают ее на мучительную смерть. Но Дженнифер сумела выжить и теперь ее единственная цель — месть. И месть эта будет столь ужасной, что бывшие насильники проклянут тот день, когда встретили ее впервые…

Выпущено/Студия: США / Family of the Year Productions, Cinetel Films, Anchor Bay Films Продолжительность: 01:47:56 Озвучивание: Дублированный

ФайлКодек: х264Качество: HDRip \| КПКВидео: MPEG-4 AVC, 480 х 272, 23.976 fps, 440 Кбит/сАудио: ААС LC, 2 ch, 128 Кбит/с

Я плюю на ваши могилы 2 / I Spit on Your Grave 2 (2013) HDRip от KinoHitHD | КПК | D

Информация о фильмеНазвание: Я плюю на ваши могилы 2Оригинальное название: I Spit on Your Grave 2Год выхода: 2013Жанр: Ужасы, триллер, криминалРежиссер постановщик: Стивен Р. Монро В ролях/Персоны: Джемма Даллендер, Джо Эбсолом, Явор Бахаров, Георг Златарев, Мэри Стокли, Валентин Пелка, Александр Алексеев, Питер Сильверлиф

Краткое описание фильма: Красавица Кэти только что переехала в Нью-Йорк, чтобы сделать карьеру модели. Но девичьи мечты о роскошной жизни разбиваются: ее насилуют, пытают, а вскоре похищают и увозят в непонятном направлении. Кэти оказывается одна в чужой стране, где ее почти что похоронят заживо. Чудом избежав смерти, девушка решает жестоко отомстить обидчикам…

Выпущено/Студия: США / Cinetel Films Продолжительность: 01:46:19Озвучивание: Дублированный - [R5]

ФайлКодек: х264Качество: HDRip \| КПКВидео: MPEG-4 AVC, 480 х 200, 23.976 fps, 440 Кбит/сАудио: ААС LC, 2 ch, 128 Кбит/с

Я плюю на ваши могилы 3 / I Spit on Your Grave 3 (2015) HDRip от KinoHitHD | КПК | iTunes

Информация о фильмеНазвание: Я плюю на ваши могилы 3Оригинальное название: I Spit on Your Grave 3Год выхода: 2015Жанр: Ужасы, триллер, криминалРежиссер постановщик: Дэниэл ГилбойВ ролях/Персоны: Сара Батлер, Дженнифер Лэндон, Даг МакКиэн, Гэбриел Хоган, Харли Джейн Козак, Мишель Херд, Расселл Чарльз Питтс, Уолтер Перес

Краткое описание фильма: Главная героиня фильма, писательница Дженнифер Хиллз, начала новую жизнь. Она посещает психотерапевта и кризисную группу для жертв изнасилований. В группе она знакомится с бойкой и яркой девушкой, которая убеждает её, что месть — это и есть правосудие. Вместе они запугивают мужчину, который насилует свою падчерицу-подростка из их группы. А потом подругу насилует и убивает её бывший парень. Пришло время Дженнифер встретиться со своим прошлым. Понесут ли преступники заслуженное наказание..? И по какую сторону окажется сама Дженнифер..?

Выпущено/Студия: США / Cinetel Films Продолжительность: 01:31:31 Озвучивание: Профессиональный (многоголосый) - [iTunes]

ФайлКодек: х264Качество: HDRip \| КПКВидео: MPEG-4 AVC, 480 х 200, 23.976 fps, 440 Кбит/сАудио: ААС LC, 2 ch, 128 Кбит/с

Релиз от: &

Trilogy (2010-2015) BDRip 720p фильм скачать торрент бесплатно HD 720

Я плюю на ваши могилы / I Spit on Your Grave / 2010

Страна: США Производство: Family of the Year Productions, Cinetel Films, Anchor Bay Films Год выпуска: 2010 Жанр: ужасы, триллер, криминал Продолжительность: 01:47:56

Режиссер: Стивен Р. Монро Авторы сценария: Адам Рокофф, Мейр Зарки

В ролях: Сара Батлер, Джефф Брэнсон, Эндрю Ховард, Дэниел Фрэнзиси, Родни Истман, Чэд Линдберг, Трейси Уолтер, Молли Миллиган

Описание: Молодая писательница Дженнифер снимает домик в глухом лесу, чтобы в уединении написать роман. Но издатель не дождется нового бестселлера… Четверо местных отморозков жестоко насилуют девушку и обрекают ее на мучительную смерть. Но Дженнифер сумела выжить и теперь ее единственная цель — месть. И месть эта будет столь ужасной, что бывшие насильники проклянут тот день, когда встретили ее впервые…

Перевод: Профессиональный (полное дублирование) + Авторский | Денис Строев Субтитры: русские, английские

Качество: BDRip 720p Формат: МКV Видео кодек: AVC Аудио кодек: АС3 Видео: 1280x720 (16:9), 24.000 fps, MPEG-4 AVC ~4 520 kbps avg, 0.204 bit/pixel Аудио №1: 48.0 kHz, AC3 Dolby Digital, 3/2 (L,C,R,l,r) + LFE ch, ~640 kbps | DUB Аудио №2: 48.0 kHz, AC3 Dolby Digital, 3/2 (L,C,R,l,r) + LFE ch, ~448 kbps | AVO Аудио №3: 48.0 kHz, AC3 Dolby Digital, 3/2 (L,C,R,l,r) + LFE ch, ~640 kbps | ENG Формат субтитров: UTF-8 Plain Text

Дата премьеры (мир): 1 мая 2010 релиз на DVD, Blu-Ray: 16 февраля 2011, «Кармен Видео»

Я плюю на ваши могилы 2 / I Spit on Your Grave 2 / 2013

Страна: США Производство: Cinetel Films Год выпуска: 2013 Жанр: ужасы, триллер, криминал Продолжительность: 01:46:19

Режиссер: Стивен Р. Монро Авторы сценария: Нил Элман, Томас Х. Фентон

В ролях: Джемма Даллендер, Джо Эбсолом, Явор Бахаров, Георг Златарев, Мэри Стокли, Валентин Пелка, Александр Алексеев, Питер Сильверлиф

Описание: Красавица Кэти только что переехала в Нью-Йорк, чтобы сделать карьеру модели. Но девичьи мечты о роскошной жизни разбиваются: ее насилуют, пытают, а вскоре похищают и увозят в непонятном направлении. Кэти оказывается одна в чужой стране, где ее почти что похоронят заживо. Чудом избежав смерти, девушка решает жестоко отомстить обидчикам…

Перевод: Профессиональный (многоголосый) | R5 + Любительский (многоголосый) | BaibaKo + Любительский (одноголосый) | den904 Субтитры: русские (R5 + от krylatkin), украинские, английские (Full + SDH + SDH-Colored)

Качество: BDRip 720p Формат: МКV Видео кодек: AVC Аудио кодек: АС3 Видео: 1280x534 (2.40:1), 23.976 fps, MPEG-4 AVC ~3 969 kbps avg, 0.242 bit/pixel Аудио №1: 48.0 kHz, AC3 Dolby Digital, 3/2 (L,C,R,l,r) + LFE ch, ~384 kbps | MVO Аудио №2: 48.0 kHz, AC3 Dolby Digital, 3/2 (L,C,R,l,r) + LFE ch, ~384 kbps | BaibaKo Аудио №3: 48.0 kHz, AC3 Dolby Digital, 2/0 (L,R) ch, ~192.00 kbps | den904 Аудио №4: 48.0 kHz, AC3 Dolby Digital, 3/2 (L,C,R,l,r) + LFE ch, ~640 kbps | ENG Формат субтитров: UTF-8 Plain Text

Дата премьеры (мир): 25 августа 2013 релиз на DVD: 23 октября 2013, «Кармен Видео» релиз на Blu-Ray: 13 ноября 2013, «Кармен Видео»

Я плюю на ваши могилы 3 / I Spit on Your Grave 3 / 2015

Страна: США Производство: Cinetel Films Год выпуска: 2015 Жанр: ужасы, триллер, криминал Продолжительность: 01:31:31

Режиссер: Р.Д. Браунштейн Автор сценария: Дэниэл Гилбой

В ролях: Сара Батлер, Дженнифер Лэндон, Даг МакКиэн, Гэбриел Хоган, Харли Джейн Козак, Мишель Херд, Расселл Чарльз Питтс, Уолтер Перес

Описание: Главная героиня фильма, писательница Дженнифер Хиллз, начала новую жизнь. Она посещает психотерапевта и кризисную группу для жертв изнасилований. В группе она знакомится с бойкой и яркой девушкой, которая убеждает её, что месть — это и есть правосудие. Вместе они запугивают мужчину, который насилует свою падчерицу-подростка из их группы. А потом подругу насилует и убивает её бывший парень. Пришло время Дженнифер встретиться со своим прошлым. Понесут ли преступники заслуженное наказание..? И по какую сторону окажется сама Дженнифер..?

Перевод: Профессиональный (многоголосый) | iTunes + Любительский (двухголосый) | Line Masters + Многоголосый (украинский) Субтитры: русские, английские (Full + SDH + SDH-Colored)

Качество: BDRip 720p Формат: МКV Видео кодек: AVC Аудио кодек: АС3 Видео: 1280x534 (2.40:1), 23.976 fps, MPEG-4 AVC ~5 547 kbps avg, 0.338 bit/pixel Аудио №1: 48.0 kHz, AC3 Dolby Digital, 3/2 (L,C,R,l,r) + LFE ch, ~384 kbps | MVO Аудио №2: 48.0 kHz, AC3 Dolby Digital, 2/0 (L,R) ch, ~384.00 kbps | Line Masters Аудио №3: 48.0 kHz, AC3 Dolby Digital, 2/0 (L,R) ch, ~192.00 kbps | UKR Аудио №4: 48.0 kHz, AC3 Dolby Digital, 3/2 (L,C,R,l,r) + LFE ch, ~640 kbps | ENG Формат субтитров: UTF-8 Plain Text

Дата премьеры (мир): 2 октября 2015 Дата премьеры (РФ): 1 октября 2015, «All Media»

mega-trek.net


Смотрите также